Juliano Cazarré | WonderFox DVD Ripper Pro 11 0 Keygen | pikachukaki

Скачать через торрент Ограбление по-американски American Heist бесплатно русская версия torrent активатор

Статистика раздачи
Размер:  552 MB   |    Зарегистрирован:  3 года 5 месяцев   |    .torrent скачан:  57 раз   |   
Раздают:  1  
   
загрузка...
 
Автор Сообщение

Galfimbul

avatar Galfimbul


Год выпуска: 2014
Страна: США, Россия
Жанр: триллер, криминал, драма, боевик
Режиссер: Сарик Андреасян
В ролях: Эдриен Броди, Хэйден Кристенсен, Джорданна Брюстер

Описание: У Джеймса темное прошлое, но сейчас он из всех сил пытается изменить свою жизнь — встречается с красивой девушкой, устроился работать автомехаником, мечтает о собственном бизнесе. Тем временем, его старший брат Френки, отсидевший десять лет в тюрьме, выходит на свободу. Френки пытается наладить отношения, но Джеймс не может простить брата за то, что много лет назад он втянул его в криминал, из-за чего Джеймс отсидел шестнадцать месяцев.
Перевод: Дублированное [Чистый звук] Официальный
Продолжительность: 01:30:53
Cубтитры: нет


Файл
Формат: MP4
Качество: WEB-DLRip
Видео: 708 Kb/s, 640x272
Аудио: AAC, 128 Kb/s (2 ch)
Формат : MPEG-4
Профиль формата : Base Media
Идентификатор кодека : isom
Размер файла : 552 MiB
Продолжительность : 1h 30mn
Общий поток : 849 Kbps
Программа кодирования : XviD4PSP 6.0 / 54.29.105

Video
Идентификатор : 1
Формат : AVC
Формат/Информация : Advanced Video Codec
Профиль формата : [email protected]
Параметр CABAC формата : Yes
Параметр ReFrames формата : 5 frames
Идентификатор кодека : avc1
Идентификатор кодека/Информация : Advanced Video Coding
Продолжительность : 1h 30mn
Битрейт : 708 Kbps
Ширина : 640 pixels
Высота : 272 pixels
Соотношение сторон : 2.35:1
Соотношение сторон в оригинале : 2.35:1
Режим частоты кадров : Constant
Частота кадров : 60.000 fps
Цветовое пространство : YUV
Субдискретизация насыщенности : 4:2:0
Битовая глубина : 8 bits
Тип развёртки : Progressive
Бит/(Пиксели*Кадры) : 0.068
Размер потока : 460 MiB (83%)
Библиотека кодирования : x264 core 128 r2216M 198a7ea
Настройки программы : cabac=1 / ref=6 / deblock=1:-2:-2 / analyse=0x3:0x133 / me=tesa / subme=10 / psy=1 / psy_rd=1.00:0.25 / mixed_ref=1 / me_range=16 / chroma_me=1 / trellis=2 / 8x8dct=1 / cqm=0 / deadzone=6,6 / fast_pskip=1 / chroma_qp_offset=-4 / threads=2 / lookahead_threads=1 / sliced_threads=0 / nr=0 / decimate=0 / interlaced=0 / bluray_compat=0 / constrained_intra=0 / bframes=6 / b_pyramid=1 / b_adapt=2 / b_bias=0 / direct=3 / weightb=1 / open_gop=0 / weightp=2 / keyint=600 / keyint_min=60 / scenecut=40 / intra_refresh=0 / rc_lookahead=40 / rc=crf / mbtree=1 / crf=20.0 / qcomp=0.80 / qpmin=10 / qpmax=51 / qpstep=4 / vbv_maxrate=9000 / vbv_bufsize=1835 / crf_max=30.0 / nal_hrd=none / ip_ratio=1.10 / aq=1:0.50

Audio
Идентификатор : 2
Формат : AAC
Формат/Информация : Advanced Audio Codec
Профиль формата : LC
Идентификатор кодека : 40
Продолжительность : 1h 30mn
Вид битрейта : Constant
Битрейт : 128 Kbps
Каналы : 2 channels
Расположение каналов : Front: L R
Частота : 44.1 KHz
Метод сжатия : Lossy
Размер потока : 83.2 MiB (15%)
Язык : Russian
Скриншоты:


Трекер:  [ 03-Фев-2015 22:30 ]

  

Скачать .torrent

Размер .torrent файла 11 KB


Размер: 552 MB
Хэш (hash) релиза: 8dbb3d3620733cad5d134b45cded21d9e56093b3

Еще никто не оставлял запись к записи скачать торрент Ограбление по-американски American Heist . Будь первым!

!Обратная связь