Silent Möbius | Guin Saga | A Christmas Carol - Free PDF eBooks Archive by Planet PDF

Скачать через торрент [VIDEO] Тропы Tracks бесплатно русская версия torrent активатор

Статистика раздачи
Размер:  1.48 GB   |    Зарегистрирован:  3 года 5 месяцев   |    .torrent скачан:  36 раз   |   
Раздают:  1  
   
загрузка...
 
Автор Сообщение

Galfimbul

avatar Galfimbul


Тропы
Tracks

Год выпуска: 2013
Страна: Австралия (See-Saw Films)
Жанр: Драма, приключения, биография
Продолжительность: 01:52:33
Перевод: Профессиональный (многоголосый закадровый)
Оригинальная дорожка: Есть
Cубтитры: Русские, отключаемые, полные
Режиссер: Джон Кёрран / John Curran
В ролях: Миа Васиковска, Адам Драйвер, Эмма Бут, Джессика Тоуви, Райнер Бок, Мелани Занетти, Роберт Колеби, Кэрол Барнс, Лили Перл, Брайан Пробетс
Описание: Юная Робин решает в одиночку пересечь Австралию. В пути ее сопровождают лишь собака и четыре верблюда. Журнал «National Geographic», заинтересовавшись ее проектом, предлагает девушке писать путевые заметки и дает в сопровождение фотографа.

Качество: HDRip (Рип с BDRip 720p)
Формат: MP4
Видео: AVC, 960x400 (2.40:1), 1618 kbps, 24.000 fps
Аудио 1: Русский, AAC, 2 ch, 48 kHz, 128 kbps [MVO]
Аудио 2: Английский, AAC, 2 ch, 48 kHz, 128 kbps [Original]
Было множество попыток перенести мемуары приключений Робин Дэвидсон на большой экран. На протяжении многих лет главные роли в фильме были закреплены за Джулией Робертс и Николь Кидман. Работа над экранизацией мемуаров началась еще до того, как родилась исполнительница главной роли фильма — Миа Васиковска.
Венецианский кинофестиваль, 2013 год
Номинации (1):
Золотой лев
x264 [info]: frame I:1447 Avg QP:17.66 size: 60362
x264 [info]: frame P:37225 Avg QP:18.98 size: 17126
x264 [info]: frame B:123390 Avg QP:21.19 size: 5196

x264 [total]: encoded 162062 frames, 22.98 fps, 1618.32 kb/s
General
Complete name : [VIDEO] Tropy.2013.HDRip.x264.960x(semen_52-TNC).mp4
Format : MPEG-4
Format profile : Base Media
Codec ID : isom
File size : 1.48 GiB
Duration : 1h 52mn
Overall bit rate mode : Variable
Overall bit rate : 1 885 Kbps
Movie name : [VIDEO] Tropy 2013 HDRip x264 960x(semen_52-TNC)
ContentType : Short Film
Encoded date : UTC 2014-09-01 18:32:37
Tagged date : UTC 2014-09-01 18:35:50
Writing application : MkvToMp4 version: 0.224 (x64)
Comment : Rip by semen_52-TNC

Video
ID : 1
Format : AVC
Format/Info : Advanced Video Codec
Format profile : [email protected]
Format settings, CABAC : Yes
Format settings, ReFrames : 8 frames
Codec ID : avc1
Codec ID/Info : Advanced Video Coding
Duration : 1h 52mn
Bit rate : 1 618 Kbps
Maximum bit rate : 8 149 Kbps
Width : 960 pixels
Height : 400 pixels
Display aspect ratio : 2.40:1
Frame rate mode : Constant
Frame rate : 24.000 fps
Color space : YUV
Chroma subsampling : 4:2:0
Bit depth : 8 bits
Scan type : Progressive
Bits/(Pixel*Frame) : 0.176
Stream size : 1.27 GiB (86%)
Writing library : x264 core 130 r2273 b3065e6
Encoding settings : cabac=1 / ref=8 / deblock=1:-3:-3 / analyse=0x3:0x113 / me=umh / subme=9 / psy=1 / psy_rd=1.00:0.15 / mixed_ref=1 / me_range=24 / chroma_me=1 / trellis=2 / 8x8dct=1 / cqm=0 / deadzone=21,11 / fast_pskip=0 / chroma_qp_offset=-3 / threads=9 / lookahead_threads=1 / sliced_threads=0 / nr=0 / decimate=1 / interlaced=0 / bluray_compat=0 / constrained_intra=0 / bframes=5 / b_pyramid=2 / b_adapt=2 / b_bias=0 / direct=1 / weightb=1 / open_gop=0 / weightp=2 / keyint=250 / keyint_min=23 / scenecut=40 / intra_refresh=0 / rc=crf / mbtree=0 / crf=19.0 / qcomp=0.60 / qpmin=0 / qpmax=69 / qpstep=4 / ip_ratio=1.40 / pb_ratio=1.30 / aq=2:1.00
Language : English
Encoded date : UTC 2014-09-01 18:32:37
Tagged date : UTC 2014-09-01 18:33:34

Audio #1
ID : 2
Format : AAC
Format/Info : Advanced Audio Codec
Format profile : LC
Codec ID : 40
Duration : 1h 52mn
Bit rate mode : Variable
Bit rate : 128 Kbps
Maximum bit rate : 188 Kbps
Channel(s) : 2 channels
Channel positions : Front: L R
Sampling rate : 48.0 KHz
Compression mode : Lossy
Stream size : 103 MiB (7%)
Title : MVO
Language : Russian
Encoded date : UTC 2014-09-01 18:32:58
Tagged date : UTC 2014-09-01 18:33:34

Audio #2
ID : 3
Format : AAC
Format/Info : Advanced Audio Codec
Format profile : LC
Codec ID : 40
Duration : 1h 52mn
Bit rate mode : Variable
Bit rate : 128 Kbps
Maximum bit rate : 177 Kbps
Channel(s) : 2 channels
Channel positions : Front: L R
Sampling rate : 48.0 KHz
Compression mode : Lossy
Stream size : 103 MiB (7%)
Title : Original
Language : English
Encoded date : UTC 2014-09-01 18:33:20
Tagged date : UTC 2014-09-01 18:33:34

Text
ID : 4
Format : Timed Text
Muxing mode : sbtl
Codec ID : tx3g
Duration : 1h 45mn
Bit rate mode : Variable
Bit rate : 49 bps
Stream size : 37.7 KiB (0%)
Title : Full
Language : Russian
Encoded date : UTC 2014-09-01 18:33:34
Tagged date : UTC 2014-09-01 18:33:34


Трекер:  [ 03-Фев-2015 18:30 ]

  

Скачать .torrent

Размер .torrent файла 15 KB


Размер: 1.48 GB
Хэш (hash) релиза: 8388f99f3d647f4d79b087fd81bc29c78e2b44da

Еще никто не оставлял запись к записи скачать торрент [VIDEO] Тропы Tracks . Будь первым!

!Обратная связь