Lexikon Der Waltarchitektur 2 L Z | Ginga e Kickoff! | Read More

Скачать через торрент [VIDEO] Кулак дракона Dragon Fist бесплатно русская версия torrent активатор

Статистика раздачи
Размер:  807 MB   |    Зарегистрирован:  3 года 5 месяцев   |    .torrent скачан:  36 раз   |   
Раздают:  1  
   
загрузка...
 
Автор Сообщение

Galfimbul

avatar Galfimbul


Кулак дракона / Dragon Fist / Long quan

Год выпуска: 1979
Страна: Гонконг, Тайвань
Жанр: боевик, драма
Продолжительность: 01:32:47
Перевод: Профессиональный (одноголосый, закадровый)
Cубтитры: нет
Режиссер: Вэй Ло / Wei Lo
В ролях: Джеки Чан / Jackie Chan, Ши-Кван Йен / Shi-Kwan Yen, Юн-чу Им / Eun-ju Im, Нора Миао / Nora Miao, Хсю Хсиа / Hsu Hsia, Ша-фэй Оуянг / Sha-Fei Ouyang и другие.
Описание: Воин Танг Хау Юэга теряет учителя. Его убил его давний соперник, отомстивший таким образом за любовную связь со своей женой. Женщина в отчаянии покончила с собой. Несчастный ревнивец, потрясенный ее смертью, отрубает себе ногу. Тан Хау Юэг поначалу решает отомстить убийце, но вскоре враги объединяются. Они должны сообща расследовать смерть вдовы Учителя, кем-то коварно отравленной…
Доп. информация:

Качество: DVDRip / [url=...1514313]DVD5[/url]
Формат: MP4
Видео кодек: H.264
Аудио кодек: AAC
Видео: 640x272 AR:2.35 1080 kbps, 25 fps
Аудио: [Russian] 2 ch, 48 kHz, 128 kbps
...last pass...

x264.exe: --pass 2 --bitrate 1080 --preset medium --profile high --level 4.1 --ref 8 --deblock -2:-2 --merange 24 --no-chroma-me --direct auto --b-adapt 2 --no-fast-pskip --no-dct-decimate --partitions all --subme 9 --me umh --colorprim bt470bg --transfer bt470bg --colormatrix bt470bg --sar 1:1 --stats "C:\VTS_01_1_002.log" --output "C:\VTS_01_1_002.mp4" "C:\Temp\0133.avs"

avs [info]: 640x272p 1:1 @ 25/1 fps (cfr)
x264 [info]: using SAR=1/1
x264 [info]: using cpu capabilities: MMX2 SSE2Fast SSSE3 SSE4.2 LZCNT
x264 [info]: profile High, level 4.1

x264 [info]: frame I:1003 Avg QP:17.55 size: 40335
x264 [info]: frame P:44888 Avg QP:20.28 size: 10374
x264 [info]: frame B:93285 Avg QP:24.21 size: 2632
x264 [info]: consecutive B-frames: 6.2% 6.3% 21.4% 66.1%
x264 [info]: mb I I16..4: 2.9% 70.2% 26.9%
x264 [info]: mb P I16..4: 0.5% 7.1% 2.9% P16..4: 45.9% 17.4% 20.9% 1.5% 0.7% skip: 3.2%
x264 [info]: mb B I16..4: 0.0% 1.6% 1.0% B16..8: 36.1% 8.8% 3.3% direct: 3.9% skip:45.1% L0:36.1% L1:47.3% BI:16.7%
x264 [info]: 8x8 transform intra:65.7% inter:55.4%
x264 [info]: direct mvs spatial:96.6% temporal:3.4%
x264 [info]: coded y,uvDC,uvAC intra: 96.2% 77.1% 37.4% inter: 33.1% 24.8% 5.9%
x264 [info]: i16 v,h,dc,p: 25% 24% 5% 45%
x264 [info]: i8 v,h,dc,ddl,ddr,vr,hd,vl,hu: 9% 9% 2% 10% 16% 15% 14% 12% 13%
x264 [info]: i4 v,h,dc,ddl,ddr,vr,hd,vl,hu: 8% 6% 2% 10% 16% 16% 15% 13% 14%
x264 [info]: i8c dc,h,v,p: 32% 27% 22% 18%
x264 [info]: Weighted P-Frames: Y:15.6% UV:2.4%
x264 [info]: ref P L0: 53.5% 18.2% 12.4% 4.1% 3.4% 2.7% 2.7% 1.8% 1.0% 0.1%
x264 [info]: ref B L0: 87.4% 7.1% 2.3% 1.2% 0.9% 0.7% 0.5%
x264 [info]: ref B L1: 96.4% 3.6%
x264 [info]: kb/s:1080.12

x264 [total]: encoded 139176 frames, 41.20 fps, 1080.12 kb/s
GeneralComplete name : D:\Torrents\Dragon Fist.DVDRip.1979.x264.640x.rip by Frost O.S.mp4Format : MPEG-4Format profile : Base MediaCodec ID : isomFile size : 807 MiBDuration : 1h 32mnOverall bit rate mode : VariableOverall bit rate : 1 217 KbpsMovie name : Dragon Fist DVDRip 1979 x264 640x rip by Frost O SContentType : Short FilmEncoded date : UTC 2015-02-02 15:07:56Tagged date : UTC 2015-02-02 15:11:50Writing application : MkvToMp4 version: 0.224 (x64)Copyright : rip by Frost O.SCover : Yes

VideoID : 1Format : AVCFormat/Info : Advanced Video CodecFormat profile : [email protected] settings, CABAC : YesFormat settings, ReFrames : 8 framesCodec ID : avc1Codec ID/Info : Advanced Video CodingDuration : 1h 32mnBit rate : 1 080 KbpsMaximum bit rate : 4 049 KbpsWidth : 640 pixelsHeight : 272 pixelsDisplay aspect ratio : 2.35:1Frame rate mode : ConstantFrame rate : 25.000 fpsColor space : YUVChroma subsampling : 4:2:0Bit depth : 8 bitsScan type : ProgressiveBits/(Pixel*Frame) : 0.248Stream size : 717 MiB (89%)Writing library : x264 core 130 r2273 b3065e6Encoding settings : cabac=1 / ref=8 / deblock=1:-2:-2 / analyse=0x3:0x133 / me=umh / subme=9 / psy=1 / psy_rd=1.00:0.00 / mixed_ref=1 / me_range=24 / chroma_me=0 / trellis=1 / 8x8dct=1 / cqm=0 / deadzone=21,11 / fast_pskip=0 / chroma_qp_offset=-2 / threads=3 / lookahead_threads=1 / sliced_threads=0 / nr=0 / decimate=0 / interlaced=0 / bluray_compat=0 / constrained_intra=0 / bframes=3 / b_pyramid=2 / b_adapt=2 / b_bias=0 / direct=3 / weightb=1 / open_gop=0 / weightp=2 / keyint=250 / keyint_min=25 / scenecut=40 / intra_refresh=0 / rc_lookahead=40 / rc=2pass / mbtree=1 / bitrate=1080 / ratetol=1.0 / qcomp=0.60 / qpmin=0 / qpmax=69 / qpstep=4 / cplxblur=20.0 / qblur=0.5 / ip_ratio=1.40 / aq=1:1.00Language : EnglishEncoded date : UTC 2015-02-02 15:07:56Tagged date : UTC 2015-02-02 15:08:05Color primaries : BT.601 PALTransfer characteristics : BT.470 System B, BT.470 System GMatrix coefficients : BT.601

AudioID : 2Format : AACFormat/Info : Advanced Audio CodecFormat profile : LCCodec ID : 40Duration : 1h 32mnBit rate mode : VariableBit rate : 128 KbpsMaximum bit rate : 132 KbpsChannel(s) : 2 channelsChannel positions : Front: L RSampling rate : 48.0 KHzCompression mode : LossyStream size : 84.9 MiB (11%)Language : RussianEncoded date : UTC 2015-02-02 15:08:03Tagged date : UTC 2015-02-02 15:08:05


Трекер:  [ 02-Фев-2015 20:00 ]

  

Скачать .torrent

Размер .torrent файла 16 KB


Размер: 807 MB
Хэш (hash) релиза: fb4b24d9b2899536760833fc6023c980a11187e0

Еще никто не оставлял запись к записи скачать торрент [VIDEO] Кулак дракона Dragon Fist . Будь первым!

!Обратная связь