Next → | Click Here to Login | Fear Her season 02 episode 11

Скачать через торрент [MULT] Как приручить дракона 2 How to Train Your Dragon 2 бесплатно русская версия torrent активатор

Статистика раздачи
Размер:  1.14 GB   |    Зарегистрирован:  3 года 5 месяцев   |    .torrent скачан:  69 раз   |   
Раздают:  1  
   
загрузка...
 
Автор Сообщение

Galfimbul

avatar Galfimbul


Как приручить дракона 2 / How to Train Your Dragon 2

Год выпуска: 2014
Страна: США
Жанр: фэнтези, комедия, приключения, семейный
Продолжительность: 01:42:13
Перевод: Профессиональный (дублированный)
Cубтитры: нет
Режиссер: Дин ДеБлуа / Dean DeBlois
Роли озвучивали: Джей Барушель. Кейт Бланшетт, Джерард Батлер, Крэйг Фергюсон, Америка Феррера, Джона Хилл, Кристофер Минц-Плассе, ТиДжей Миллер, Кристен Уиг, Джимон Хонсу
Описание: С момента примирения викингов и драконов прошло пять лет. Пока Астрид, Сморкала и остальные ребята проводят время, соревнуясь друг с другом в популярных на острове драконьих гонках, Иккинг и Беззубик путешествуют по небу, составляя карту неизвестных мест. Когда одно из их приключений приводит к открытию тайной ледяной пещеры, которая является домом для сотен ранее невиданных диких драконов и таинственного драконьего всадника, два друга оказываются в центре битвы за защиту мира.
Доп. информация:
Релиз группы
Качество: WEB-DLRip / [url=...4814804]WEB-DL 1080p[/url]
Формат: MP4
Видео кодек: H.264
Аудио кодек: AAC
Видео: 960x408 AR:2.35 1460 kbps, 23.976 fps
Аудио: [Russian] 2 ch, 48 kHz, 128 kbps - [DUB] [b]iTunes[/b]
...last pass...

x264.exe: --pass 2 --bitrate 1460 --preset medium --profile high --level 4.1 --ref 8 --deblock -2:-2 --merange 24 --no-chroma-me --direct auto --b-adapt 2 --no-fast-pskip --no-dct-decimate --subme 9 --me umh --colorprim bt709 --transfer bt709 --colormatrix bt709 --sar 1:1 --stats "D:\Temp\0165.log" --output "D:\Temp\0165.264" "D:\Temp\0165.avs"

avs [info]: 960x408p 1:1 @ 2500000/104271 fps (cfr)
x264 [info]: using SAR=1/1
x264 [info]: using cpu capabilities: MMX2 SSE2Fast SSSE3 SSE4.2 LZCNT
x264 [info]: profile High, level 4.1

x264 [info]: frame I:1567 Avg QP:17.00 size: 44782
x264 [info]: frame P:45915 Avg QP:20.29 size: 13616
x264 [info]: frame B:99565 Avg QP:23.24 size: 4258
x264 [info]: consecutive B-frames: 4.4% 11.0% 14.8% 69.8%
x264 [info]: mb I I16..4: 10.2% 62.0% 27.8%
x264 [info]: mb P I16..4: 3.8% 13.0% 3.6% P16..4: 43.3% 16.6% 11.4% 0.0% 0.0% skip: 8.3%
x264 [info]: mb B I16..4: 0.4% 2.2% 0.7% B16..8: 35.1% 8.1% 2.5% direct: 2.9% skip:48.1% L0:37.7% L1:50.1% BI:12.2%
x264 [info]: 8x8 transform intra:64.3% inter:60.3%
x264 [info]: direct mvs spatial:90.5% temporal:9.5%
x264 [info]: coded y,uvDC,uvAC intra: 71.3% 60.8% 25.2% inter: 19.8% 14.8% 4.3%
x264 [info]: i16 v,h,dc,p: 18% 21% 9% 52%
x264 [info]: i8 v,h,dc,ddl,ddr,vr,hd,vl,hu: 11% 9% 5% 9% 14% 13% 15% 11% 14%
x264 [info]: i4 v,h,dc,ddl,ddr,vr,hd,vl,hu: 10% 8% 4% 9% 15% 14% 16% 11% 15%
x264 [info]: i8c dc,h,v,p: 38% 30% 17% 14%
x264 [info]: Weighted P-Frames: Y:1.9% UV:1.2%
x264 [info]: ref P L0: 62.2% 9.6% 12.1% 4.6% 3.4% 3.3% 2.8% 1.7% 0.4% 0.0%
x264 [info]: ref B L0: 86.8% 6.4% 3.3% 1.4% 1.1% 0.7% 0.4%
x264 [info]: ref B L1: 96.6% 3.4%
x264 [info]: kb/s:1460.04
encoded 147047 frames, 19.04 fps, 1460.04 kb/s
General Complete name : D:\Torrents\How.to.Train.Your.Dragon.2.2014.WEB-DLRip.x264.960x.rip by Frost O.S.mp4 Format : MPEG-4 Format profile : Base Media Codec ID : isom File size : 1.14 GiB Duration : 1h 42mn Overall bit rate mode : Variable Overall bit rate : 1 596 Kbps Movie name : How to Train Your Dragon 2 ContentType : Short Film Encoded date : UTC 2014-09-21 16:27:36 Tagged date : UTC 2014-09-21 16:29:58 Writing application : MkvToMp4 version: 0.224 (x64)

Video ID : 1 Format : AVC Format/Info : Advanced Video Codec Format profile : [email protected] Format settings, CABAC : Yes Format settings, ReFrames : 8 frames Codec ID : avc1 Codec ID/Info : Advanced Video Coding Duration : 1h 42mn Bit rate : 1 460 Kbps Maximum bit rate : 9 050 Kbps Width : 960 pixels Height : 408 pixels Display aspect ratio : 2.35:1 Frame rate mode : Constant Frame rate : 23.976 fps Color space : YUV Chroma subsampling : 4:2:0 Bit depth : 8 bits Scan type : Progressive Bits/(Pixel*Frame) : 0.155 Stream size : 1.04 GiB (91%) Writing library : x264 core 130 r2273 b3065e6 Encoding settings : cabac=1 / ref=8 / deblock=1:-2:-2 / analyse=0x3:0x113 / me=umh / subme=9 / psy=1 / psy_rd=1.00:0.00 / mixed_ref=1 / me_range=24 / chroma_me=0 / trellis=1 / 8x8dct=1 / cqm=0 / deadzone=21,11 / fast_pskip=0 / chroma_qp_offset=-2 / threads=3 / lookahead_threads=1 / sliced_threads=0 / nr=0 / decimate=0 / interlaced=0 / bluray_compat=0 / constrained_intra=0 / bframes=3 / b_pyramid=2 / b_adapt=2 / b_bias=0 / direct=3 / weightb=1 / open_gop=0 / weightp=2 / keyint=250 / keyint_min=23 / scenecut=40 / intra_refresh=0 / rc_lookahead=40 / rc=2pass / mbtree=1 / bitrate=1460 / ratetol=1.0 / qcomp=0.60 / qpmin=0 / qpmax=69 / qpstep=4 / cplxblur=20.0 / qblur=0.5 / ip_ratio=1.40 / aq=1:1.00 Language : English Encoded date : UTC 2014-09-21 16:27:36 Tagged date : UTC 2014-09-21 16:27:54 Color primaries : BT.709 Transfer characteristics : BT.709 Matrix coefficients : BT.709

Audio ID : 2 Format : AAC Format/Info : Advanced Audio Codec Format profile : LC Codec ID : 40 Duration : 1h 41mn Bit rate mode : Variable Bit rate : 128 Kbps Maximum bit rate : 174 Kbps Channel(s) : 2 channels Channel positions : Front: L R Sampling rate : 48.0 KHz Compression mode : Lossy Stream size : 93.2 MiB (8%) Language : Russian Encoded date : UTC 2014-09-21 16:27:49 Tagged date : UTC 2014-09-21 16:27:54


Трекер:  [ 02-Фев-2015 15:00 ]

  

Скачать .torrent

Размер .torrent файла 12 KB


Размер: 1.14 GB
Хэш (hash) релиза: 4d5cadd9c6342caf3e465cb9967391754e3d748d

Еще никто не оставлял запись к записи скачать торрент [MULT] Как приручить дракона 2 How to Train Your Dragon 2 . Будь первым!

!Обратная связь