Episode 2 | Ancient Aliens | Joseph and Mary

Скачать через торрент [MULT] Холодное сердце Frozen бесплатно русская версия torrent активатор

Статистика раздачи
Размер:  609 MB   |    Зарегистрирован:  3 года 5 месяцев   |    .torrent скачан:  71 раз   |   
Раздают:  1  
   
загрузка...
 
Автор Сообщение

Galfimbul

avatar Galfimbul


Холодное сердце / Frozen

Год выпуска: 2013
Страна: США
Жанр: мультфильм, мюзикл, приключения, семейный
Продолжительность: 01:42:13
Перевод: Профессиональный (дублированный)
Cубтитры: нет
Режиссер: Крис Бак / Chris Buck , Дженнифер Ли / Jennifer Lee
Роли озвучивали: Кристен Белл, Идина Мензел, Джонатан Грофф, Джош Гад, Сантино Фонтана, Алан Тьюдик, Киаран Хайндс, Крис Уильямс, Стивен Дж. Андерсон, Майа Уилсон, Эди МакКлёрг, Роберт Пайн, Морис ЛаМарш, Ливвай Штубенраух, Ева Белла...
Роли дублировали : Наталия Быстрова, Анна Бутурлина, Андрей Бирин, Сергей Пенкин, Дима Билан, Владимир Рыбальченко, Сергей Чихачев, Анастасия Лапина и др.
Описание: Когда древнее предсказание сбывается и королевство погружается в объятия вечной зимы, трое бесстрашных героев - принцесса Анна, отважный Кристофф и его верный олень Свен - отправляются в горы, чтобы найти сестру Анны, Эльзу, которая может снять со страны леденящее заклятие. По пути их ждет множество увлекательных сюрпризов и захватывающих приключений: встреча с мистическими троллями, знакомство с очаровательным снеговиком по имени Олаф, горные вершины покруче Эвереста и магия в каждой снежинке. Анне и Кристоффу предстоит сплотиться и противостоять могучей стихии, чтобы спасти королевство и тех, кто им дорог...
Доп. информация:
Релиз группы
Качество: HDRip / [url=...4781162]BDRip 720p[/url]
Формат: MP4
Видео кодек: H.264
Аудио кодек: AAC
Видео: 640x288 AR:2.222 697 kbps, 23.976 fps
Аудио: [Russian] 2 ch, 48 kHz, 128 kbps - [DUB]
...last pass...
x264.exe: --pass 2 --bitrate 697 --preset medium --profile high --level 4.1 --ref 8 --deblock -2:-2 --merange 24 --no-chroma-me --direct auto --b-adapt 2 --no-fast-pskip --no-dct-decimate --subme 9 --me umh --colorprim bt709 --transfer bt709 --colormatrix bt709 --sar 1:1 --stats "D:\Temp\0170.log" --output "D:\Temp\0170.264" "D:\Temp\0170.avs"
avs [info]: 640x288p 1:1 @ 2997/125 fps (cfr)
x264 [info]: using SAR=1/1
x264 [info]: using cpu capabilities: MMX2 SSE2Fast SSSE3 SSE4.2 LZCNT
x264 [info]: profile High, level 4.1
x264 [info]: frame I:1465 Avg QP:14.97 size: 32848
x264 [info]: frame P:45395 Avg QP:18.72 size: 6484
x264 [info]: frame B:100185 Avg QP:23.45 size: 1914
x264 [info]: consecutive B-frames: 4.8% 5.3% 23.3% 66.6%
x264 [info]: mb I I16..4: 10.7% 54.4% 34.9%
x264 [info]: mb P I16..4: 1.6% 5.2% 2.4% P16..4: 34.6% 16.1% 13.0% 0.0% 0.0% skip:27.2%
x264 [info]: mb B I16..4: 0.1% 0.9% 0.5% B16..8: 28.9% 7.0% 2.6% direct: 2.9% skip:57.1% L0:38.7% L1:48.0% BI:13.3%
x264 [info]: 8x8 transform intra:56.7% inter:50.6%
x264 [info]: direct mvs spatial:82.1% temporal:17.9%
x264 [info]: coded y,uvDC,uvAC intra: 80.5% 79.4% 58.7% inter: 16.6% 16.8% 8.0%
x264 [info]: i16 v,h,dc,p: 29% 22% 10% 40%
x264 [info]: i8 v,h,dc,ddl,ddr,vr,hd,vl,hu: 8% 9% 5% 9% 14% 13% 16% 11% 15%
x264 [info]: i4 v,h,dc,ddl,ddr,vr,hd,vl,hu: 9% 7% 4% 9% 15% 14% 15% 12% 15%
x264 [info]: i8c dc,h,v,p: 43% 24% 18% 15%
x264 [info]: Weighted P-Frames: Y:3.0% UV:1.8%
x264 [info]: ref P L0: 63.2% 10.0% 11.2% 4.9% 3.1% 3.1% 2.3% 1.7% 0.5% 0.0%
x264 [info]: ref B L0: 81.5% 9.2% 4.4% 1.7% 1.6% 1.0% 0.6%
x264 [info]: ref B L1: 93.0% 7.0%
x264 [info]: kb/s:696.87
x264 [total]: encoded 147045 frames, 21.37 fps, 696.87 kb/s
GeneralComplete name : D:\Torrents\Frozen.2013.HDRip.x264.Dub.640x.rip by Frost O.S.mp4Format : MPEG-4Format profile : Base MediaCodec ID : isomFile size : 609 MiBDuration : 1h 42mnOverall bit rate mode : VariableOverall bit rate : 833 KbpsMovie name : Frozen 2013 Rus VideoContentType : Short FilmEncoded date : UTC 2014-09-23 15:16:16Tagged date : UTC 2014-09-23 15:17:49Writing application : MkvToMp4 version: 0.224 (x64)VideoID : 1Format : AVCFormat/Info : Advanced Video CodecFormat profile : [email protected] settings, CABAC : YesFormat settings, ReFrames : 8 framesCodec ID : avc1Codec ID/Info : Advanced Video CodingDuration : 1h 42mnBit rate : 697 KbpsMaximum bit rate : 7 690 KbpsWidth : 640 pixelsHeight : 288 pixelsDisplay aspect ratio : 2.222Frame rate mode : ConstantFrame rate : 23.976 fpsColor space : YUVChroma subsampling : 4:2:0Bit depth : 8 bitsScan type : ProgressiveBits/(Pixel*Frame) : 0.158Stream size : 509 MiB (84%)Writing library : x264 core 130 r2273 b3065e6Encoding settings : cabac=1 / ref=8 / deblock=1:-2:-2 / analyse=0x3:0x113 / me=umh / subme=9 / psy=1 / psy_rd=1.00:0.00 / mixed_ref=1 / me_range=24 / chroma_me=0 / trellis=1 / 8x8dct=1 / cqm=0 / deadzone=21,11 / fast_pskip=0 / chroma_qp_offset=-2 / threads=3 / lookahead_threads=1 / sliced_threads=0 / nr=0 / decimate=0 / interlaced=0 / bluray_compat=0 / constrained_intra=0 / bframes=3 / b_pyramid=2 / b_adapt=2 / b_bias=0 / direct=3 / weightb=1 / open_gop=0 / weightp=2 / keyint=250 / keyint_min=23 / scenecut=40 / intra_refresh=0 / rc_lookahead=40 / rc=2pass / mbtree=1 / bitrate=697 / ratetol=1.0 / qcomp=0.60 / qpmin=0 / qpmax=69 / qpstep=4 / cplxblur=20.0 / qblur=0.5 / ip_ratio=1.40 / aq=1:1.00Language : EnglishEncoded date : UTC 2014-09-23 15:16:16Tagged date : UTC 2014-09-23 15:16:23Color primaries : BT.709Transfer characteristics : BT.709Matrix coefficients : BT.709AudioID : 2Format : AACFormat/Info : Advanced Audio CodecFormat profile : LCCodec ID : 40Duration : 1h 42mnBit rate mode : VariableBit rate : 128 KbpsMaximum bit rate : 167 KbpsChannel(s) : 2 channelsChannel positions : Front: L RSampling rate : 48.0 KHzCompression mode : LossyStream size : 93.3 MiB (15%)Language : RussianEncoded date : UTC 2014-09-23 15:16:21Tagged date : UTC 2014-09-23 15:16:23


Трекер:  [ 02-Фев-2015 15:00 ]

  

Скачать .torrent

Размер .torrent файла 12 KB


Размер: 609 MB
Хэш (hash) релиза: e289375b1f36da77954efd9fdae0f77cb68eb6d7

Торренты, похожие на [MULT] Холодное сердце Frozen скачать торрент

Форум Название Автор Размер S L Добавлен
Видео (Фильмы/Клипы) ·· [MULT, MP-4, 640х] Холодное сердце / Frozen (Крис Бак, Дженнифер Ли) [2013 г., мультфильм, мюзикл, фэнтези, WEB-DLRip] КПК alien.09 623930741595 MB 0 0 1395351403

00:36

21-Мар-14

Еще никто не оставлял запись к записи скачать торрент [MULT] Холодное сердце Frozen . Будь первым!

!Обратная связь