Dark Matter S03E04 HDTV x264 SVA ettv | BD Dragon Crisis Subtitle Indonesia | Vol. 2 Ch. 53 - Read Online

Скачать через торрент [VIDEO] Виноваты звезды The Fault in Our Stars бесплатно русская версия torrent активатор

Статистика раздачи
Размер:  1.29 GB   |    Зарегистрирован:  3 года 5 месяцев   |    .torrent скачан:  1556 раз   |   
Раздают:  1  
   
загрузка...
 
Автор Сообщение

Galfimbul

avatar Galfimbul


Виноваты звезды / The Fault in Our Stars [Extended Cut]

Год выпуска: 2014
Страна: США
Студия:: Temple Hill Entertainment
Жанр: Драма, мелодрама
Продолжительность: 02:12:53
Перевод: Профессиональный (дублированный) Blu-ray CEE
Cубтитры: нет
Режиссер: Джош Бун / Josh Boone
В ролях: Шейлин Вудли, Энсел Элгорт, Лора Дерн, Сэм Трэммелл, Нат Вулф, Уиллем Дефо, Лотте Вербеек, Ана Дела Крус, Рэнди Ковиц. Тони Саладна
Описание: Хэйзел больна раком. Несмотря на то, что болезнь временно отступила, девушка не чувствует ни капли радости. Она ходит в группу поддержки, где однажды знакомится с Августом Уотерсом и моментально влюбляется в него. Август и Хэйзел отправляются в полное страсти и жизни путешествие, которое лишний раз покажет им, что весь смысл жизни можно найти в любом ее отрезке.
Доп. информация:
Релиз группы
Качество: HDRip / [url=...4827079]BDRip 720p[/url]
Формат: MP4
Видео кодек: H.264
Аудио кодек: AAC
Видео: 960x520 AR:1.85 1250 kbps, 23.976 fps
Аудио: [Russian] 2 ch, 48 kHz, 128 kbps - [DUB]
...last pass...
x264.exe: --pass 2 --bitrate 1250 --preset medium --profile high --level 4.1 --ref 8 --deblock -2:-2 --merange 24 --no-chroma-me --direct auto --b-adapt 2 --no-fast-pskip --no-dct-decimate --subme 9 --me umh --colorprim bt709 --transfer bt709 --colormatrix bt709 --sar 1:1 --stats "D:\Temp\0168.log" --output "D:\Temp\0168.264" "D:\Temp\0168.avs"
avs [info]: 960x520p 1:1 @ 2500000/104271 fps (cfr)
x264 [info]: using SAR=1/1
x264 [info]: using cpu capabilities: MMX2 SSE2Fast SSSE3 SSE4.2 LZCNT
x264 [info]: profile High, level 4.1
x264 [info]: frame I:2005 Avg QP:15.79 size: 65806
x264 [info]: frame P:54835 Avg QP:18.39 size: 13395
x264 [info]: frame B:134343 Avg QP:21.14 size: 2816
x264 [info]: consecutive B-frames: 3.5% 4.5% 11.7% 80.3%
x264 [info]: mb I I16..4: 15.0% 61.8% 23.2%
x264 [info]: mb P I16..4: 1.1% 3.2% 0.9% P16..4: 47.3% 17.7% 14.7% 0.0% 0.0% skip:15.1%
x264 [info]: mb B I16..4: 0.1% 0.3% 0.1% B16..8: 40.9% 4.0% 1.0% direct: 1.4% skip:52.3% L0:39.8% L1:53.7% BI: 6.5%
x264 [info]: 8x8 transform intra:62.4% inter:64.4%
x264 [info]: direct mvs spatial:95.2% temporal:4.8%
x264 [info]: coded y,uvDC,uvAC intra: 79.5% 78.6% 50.8% inter: 15.7% 18.7% 6.5%
x264 [info]: i16 v,h,dc,p: 36% 18% 5% 41%
x264 [info]: i8 v,h,dc,ddl,ddr,vr,hd,vl,hu: 13% 8% 3% 10% 15% 14% 13% 12% 11%
x264 [info]: i4 v,h,dc,ddl,ddr,vr,hd,vl,hu: 12% 8% 3% 10% 16% 15% 14% 11% 12%
x264 [info]: i8c dc,h,v,p: 38% 24% 21% 17%
x264 [info]: Weighted P-Frames: Y:1.2% UV:0.5%
x264 [info]: ref P L0: 57.9% 9.0% 14.0% 5.6% 4.3% 3.7% 3.0% 1.9% 0.4% 0.0%
x264 [info]: ref B L0: 81.6% 8.7% 4.8% 1.9% 1.5% 0.9% 0.5%
x264 [info]: ref B L1: 93.5% 6.5%
x264 [info]: kb/s:1248.79
encoded 191183 frames, 20.05 fps, 1248.79 kb/s
GeneralComplete name : D:\Torrents\The.Fault.in.our.Stars.2014.HDRip.x264.960x.rip by Frost O.S.mp4Format : MPEG-4Format profile : Base MediaCodec ID : isomFile size : 1.29 GiBDuration : 2h 12mnOverall bit rate mode : VariableOverall bit rate : 1 385 KbpsMovie name : The Fault in our Stars 2014ContentType : Short FilmEncoded date : UTC 2014-09-22 16:57:35Tagged date : UTC 2014-09-22 17:02:14Writing application : MkvToMp4 version: 0.224 (x64)VideoID : 1Format : AVCFormat/Info : Advanced Video CodecFormat profile : [email protected] settings, CABAC : YesFormat settings, ReFrames : 8 framesCodec ID : avc1Codec ID/Info : Advanced Video CodingDuration : 2h 12mnBit rate : 1 250 KbpsMaximum bit rate : 6 162 KbpsWidth : 960 pixelsHeight : 520 pixelsDisplay aspect ratio : 1.85:1Frame rate mode : ConstantFrame rate : 23.976 fpsColor space : YUVChroma subsampling : 4:2:0Bit depth : 8 bitsScan type : ProgressiveBits/(Pixel*Frame) : 0.104Stream size : 1.16 GiB (90%)Writing library : x264 core 130 r2273 b3065e6Encoding settings : cabac=1 / ref=8 / deblock=1:-2:-2 / analyse=0x3:0x113 / me=umh / subme=9 / psy=1 / psy_rd=1.00:0.00 / mixed_ref=1 / me_range=24 / chroma_me=0 / trellis=1 / 8x8dct=1 / cqm=0 / deadzone=21,11 / fast_pskip=0 / chroma_qp_offset=-2 / threads=3 / lookahead_threads=1 / sliced_threads=0 / nr=0 / decimate=0 / interlaced=0 / bluray_compat=0 / constrained_intra=0 / bframes=3 / b_pyramid=2 / b_adapt=2 / b_bias=0 / direct=3 / weightb=1 / open_gop=0 / weightp=2 / keyint=250 / keyint_min=23 / scenecut=40 / intra_refresh=0 / rc_lookahead=40 / rc=2pass / mbtree=1 / bitrate=1250 / ratetol=1.0 / qcomp=0.60 / qpmin=0 / qpmax=69 / qpstep=4 / cplxblur=20.0 / qblur=0.5 / ip_ratio=1.40 / aq=1:1.00Language : EnglishEncoded date : UTC 2014-09-22 16:57:35Tagged date : UTC 2014-09-22 16:58:46Color primaries : BT.709Transfer characteristics : BT.709Matrix coefficients : BT.709AudioID : 2Format : AACFormat/Info : Advanced Audio CodecFormat profile : LCCodec ID : 40Duration : 2h 12mnBit rate mode : VariableBit rate : 128 KbpsMaximum bit rate : 193 KbpsChannel(s) : 2 channelsChannel positions : Front: L RSampling rate : 48.0 KHzCompression mode : LossyStream size : 121 MiB (9%)Language : RussianEncoded date : UTC 2014-09-22 16:58:39Tagged date : UTC 2014-09-22 16:58:46


Трекер:  [ 02-Фев-2015 15:00 ]

  

Скачать .torrent

Размер .torrent файла 13 KB


Размер: 1.29 GB
Хэш (hash) релиза: 8247f7f69af950bcf438a2843dc7148a304fca82

Еще никто не оставлял запись к записи скачать торрент [VIDEO] Виноваты звезды The Fault in Our Stars . Будь первым!

!Обратная связь