Фруктовые Войны [06.04.18] (Esprit Games) (RUS) [L] Подробнее... Залито: 06-04-2018 17:24 (295 просмотров) Фруктовые Войны [06.04.18] (Esprit Games) (RUS) [L] Многопользовательские игры Фруктовые Войны - веселая и ослепляюще яркая онлайн-игра с классической ролевой механикой и армией фруктовых героев, которые будут удивлять и забавлять тебя каждую секунду!... Раздают: 3 Качают: 0 Размер: 517MB | Season 2 Episode 6 The Cock Barrens | GM Odore Doctor

Скачать через торрент [SERIAL] Последний бой Серии: 1-3 из 3 бесплатно русская версия torrent активатор

Статистика раздачи
Размер:  573 MB   |    Зарегистрирован:  3 года 5 месяцев   |    .torrent скачан:  41 раз   |   
Раздают:  1  
   
загрузка...
 
Автор Сообщение

Galfimbul

avatar Galfimbul


Последний бой
Год выпуска: 2013
Страна: Россия
Жанр: Военный, драма
Продолжительность: 3x ~ 00:45:00
Перевод: Не требуется
Русские субтитры: нет
Режиссер: Иван Шурховецкий
В ролях: Александр Марушев, Яков Шамшин, Дмитрий Сергин, Нодар Джанелидзе, Степан Бекетов, Сергей Уманов, Вадим Франчук, Денис Чернорицкий, Даниил Кокин, Евгений Филимонов, Тадас Шимилёв, Татьяна Захарова, Артем Шилов, Степан Балакшин, Максим Павлов
Описание: Спустя четыре года войны, они всего в двух шагах от Берлина. Им остается самый тяжелый, самый смертельный — последний бой. Боец Ведемеев по прозвищу Ведьма едва вышел из госпиталя после тяжелого ранения. Он не бьется за партию, не бьется за Сталина, не сражается за коммунизм. Он бьется за себя, свою семью и своих однополчан. Ведьма присоединяется к своим накануне форсирования Одера, за которой уже Германия…
Качество: DVBRip
Формат: MP4
Видео кодек: H.264
Аудио кодек: AAC
Видео: AVC, 480x208 (16:9), 25.000 fps, 432 Kbps (0.173 bit/pixel)
Аудио: AAC LC, 48.0 KHz, 2 ch, 128 Kbps, CBR
Все раздачи сериала
GeneralComplete name : D:\Documents\Мои видеозаписи\Posledniy.Boy.2013\Posledniy.Boy.01.2013.DVBRip.mp4Format : MPEG-4Format profile : Base MediaCodec ID : isomFile size : 192 MiBDuration : 45mn 40sOverall bit rate : 587 KbpsEncoded date : UTC 2015-01-29 09:16:53Tagged date : UTC 2015-01-29 09:16:53Writing application : Lavf56.19.100Comment : by aleksd72

VideoID : 1Format : AVCFormat/Info : Advanced Video CodecFormat profile : [email protected] settings, CABAC : YesFormat settings, ReFrames : 2 framesCodec ID : avc1Codec ID/Info : Advanced Video CodingDuration : 45mn 40sBit rate : 453 KbpsWidth : 480 pixelsHeight : 208 pixelsDisplay aspect ratio : 16:9Original display aspect ratio : 16:9Frame rate mode : ConstantFrame rate : 25.000 fpsStandard : ComponentColor space : YUVChroma subsampling : 4:2:0Bit depth : 8 bitsScan type : ProgressiveBits/(Pixel*Frame) : 0.181Stream size : 148 MiB (77%)Writing library : x264 core 144 r2525Encoding settings : cabac=1 / ref=2 / deblock=1:-1:-1 / analyse=0x3:0x133 / me=hex / subme=7 / psy=1 / psy_rd=1.00:0.10 / mixed_ref=0 / me_range=16 / chroma_me=1 / trellis=1 / 8x8dct=1 / cqm=0 / deadzone=21,11 / fast_pskip=1 / chroma_qp_offset=-3 / threads=6 / lookahead_threads=1 / sliced_threads=0 / nr=0 / decimate=1 / interlaced=0 / bluray_compat=0 / constrained_intra=0 / bframes=3 / b_pyramid=0 / b_adapt=1 / b_bias=0 / direct=3 / weightb=1 / open_gop=1 / weightp=2 / keyint=250 / keyint_min=25 / scenecut=40 / intra_refresh=0 / rc_lookahead=40 / rc=abr / mbtree=1 / bitrate=453 / ratetol=1.0 / qcomp=0.60 / qpmin=10 / qpmax=69 / qpstep=4 / vbv_maxrate=24000 / vbv_bufsize=24000 / nal_hrd=none / filler=0 / ip_ratio=1.40 / aq=3:1.00Encoded date : UTC 2015-01-29 09:16:53Tagged date : UTC 2015-01-29 09:16:53

AudioID : 2Format : AACFormat/Info : Advanced Audio CodecFormat profile : LCCodec ID : 40Duration : 45mn 40sDuration_LastFrame : -19msBit rate mode : ConstantBit rate : 128 KbpsChannel(s) : 2 channelsChannel positions : Front: L RSampling rate : 48.0 KHzCompression mode : LossyStream size : 41.8 MiB (22%)Language : EnglishEncoded date : UTC 2015-01-29 09:16:53Tagged date : UTC 2015-01-29 09:16:53


Трекер:  [ 01-Фев-2015 10:30 ]

  

Скачать .torrent

Размер .torrent файла 12 KB


Размер: 573 MB
Хэш (hash) релиза: dc9f0cc7acb7f5ee93cb13ec06fb12f782dfee2d

Еще никто не оставлял запись к записи скачать торрент [SERIAL] Последний бой Серии: 1-3 из 3 . Будь первым!

!Обратная связь