Edward Herrmann | Потерпевшие кораблекрушение / Отверженные / Castaway (1986) DVDRip | A | SpermSwallowers - Nyomi Marcellla (12.28.2012)

Скачать через торрент [SERIAL] Палач Сезон 1, Серии: 1-10 из 10 бесплатно русская версия torrent активатор

Статистика раздачи
Размер:  2.06 GB   |    Зарегистрирован:  3 года 5 месяцев   |    .torrent скачан:  102 раза   |   
Раздают:  1  
   
загрузка...
 
Автор Сообщение

Galfimbul

avatar Galfimbul


Палач
Год выпуска: 2015
Страна: Россия
Жанр: Психологический триллер
Продолжительность: 10 x ~00:50:00
Перевод: Не требуется
Русские субтитры: нет
Режиссер: Вячеслав Никифоров
В ролях: Андрей Смоляков, Марина Александрова, Алексей Бардуков, Юлия Пересильд, Виктория Толстоганова, Анатолий Журавлёв, Анатолий Калмыков, Анатолий Просалов, Руслан Ягудин, Юрий Чурсин, Светлана Ходченкова, Андреас Хельги Шмид, Маттиас В. Винтцер, Борис Полунин, Юрий Тарасов, Юлия Куварзина, Людмила Полякова, Вероника Лысакова, Денис Варенов, Елена Семёнова-Хмурова, Вероника Вернадская, Станислав Беляев, Алёна Константинова, Анатолий Кузнецов, Иван Волков, Анвар Халилулаев, Денис Курочка, Ася Дубровская, Анастасия Шалонько, Луиза Мосендз, Ольга Гагарина, Игорь Филиппов, Денис Бургазлиев, Роман Стабуров, Даниэла Стоянович, Саша Дробитько и другие.
Описание:События разворачиваются на окраине Москвы в 1965 году. В центре - история разоблачения женщины-палача, которая во время войны по указке немцев расстреливала пленных, партизан, мирных жителей. Это фактически отдельная гражданская война изуверки со своим народом. В войну ей едва исполнилось 20 лет, а на ее счету было уже полторы тысячи убийств. Своих жертв она расстреливала из пулемета, прячась за игрушечной маской зайчика. Потом выпивала бутылку самогона и затем появлялась уже на следующее утро без маски и жила обычной жизнью, такой же, как и все остальные...Поэтому после войны вычислить убийцу было очень непросто. Дело это поручили главному следователю. Его подозрения падают то на одну, то на другую женщину...
Качество: HDTVRip
Формат: MP4
Видео кодек: H.264
Аудио кодек: AAC
Видео: AVC, 480x272 (16:9), 25.000 fps, 450 Kbps (0.138 bit/pixel)
Аудио: AAC LC, 44.1 KHz, 2 ch, 128 Kbps, CBR (Russian)
Все раздачи сериала
GeneralComplete name : D:\Documents\Мои видеозаписи\Palach.2015\Palach.01.2015.HDTVRip.mp4Format : MPEG-4Format profile : Base MediaCodec ID : isomFile size : 213 MiBDuration : 50mn 58sOverall bit rate : 583 KbpsEncoded date : UTC 2015-01-30 09:41:15Tagged date : UTC 2015-01-30 09:41:15Writing application : Lavf56.19.100Comment : by aleksd72

VideoID : 1Format : AVCFormat/Info : Advanced Video CodecFormat profile : [email protected] settings, CABAC : NoFormat settings, ReFrames : 2 framesCodec ID : avc1Codec ID/Info : Advanced Video CodingDuration : 50mn 58sBit rate : 450 KbpsWidth : 480 pixelsHeight : 272 pixelsDisplay aspect ratio : 16:9Frame rate mode : ConstantFrame rate : 25.000 fpsStandard : ComponentColor space : YUVChroma subsampling : 4:2:0Bit depth : 8 bitsScan type : ProgressiveBits/(Pixel*Frame) : 0.138Stream size : 164 MiB (77%)Writing library : x264 core 144 r2525Encoding settings : cabac=0 / ref=2 / deblock=1:-1:-1 / analyse=0x3:0x133 / me=hex / subme=7 / psy=1 / psy_rd=1.00:0.10 / mixed_ref=0 / me_range=16 / chroma_me=1 / trellis=1 / 8x8dct=1 / cqm=0 / deadzone=21,11 / fast_pskip=1 / chroma_qp_offset=-3 / threads=1 / lookahead_threads=1 / sliced_threads=0 / nr=0 / decimate=1 / interlaced=0 / bluray_compat=0 / constrained_intra=0 / bframes=0 / weightp=0 / keyint=250 / keyint_min=25 / scenecut=40 / intra_refresh=0 / rc_lookahead=40 / rc=abr / mbtree=1 / bitrate=450 / ratetol=1.0 / qcomp=0.60 / qpmin=10 / qpmax=69 / qpstep=4 / vbv_maxrate=24000 / vbv_bufsize=24000 / nal_hrd=none / filler=0 / ip_ratio=1.40 / aq=1:1.00Encoded date : UTC 2015-01-30 09:41:15Tagged date : UTC 2015-01-30 09:41:15

AudioID : 2Format : AACFormat/Info : Advanced Audio CodecFormat profile : LCCodec ID : 40Duration : 50mn 58sDuration_LastFrame : -3msBit rate mode : ConstantBit rate : 128 KbpsChannel(s) : 2 channelsChannel positions : Front: L RSampling rate : 44.1 KHzCompression mode : LossyStream size : 46.7 MiB (22%)Language : RussianEncoded date : UTC 2015-01-30 09:41:15Tagged date : UTC 2015-01-30 09:41:15


Трекер:  [ 01-Фев-2015 01:00 ]

  

Скачать .torrent

Размер .torrent файла 11 KB


Размер: 2.06 GB
Хэш (hash) релиза: bf1b4784f94dc6cc9e904a3e2827e45fdd1d4b3f

Еще никто не оставлял запись к записи скачать торрент [SERIAL] Палач Сезон 1, Серии: 1-10 из 10 . Будь первым!

!Обратная связь