Miss Korea | Империя Мертвецов / Shisha no Teikoku / The Empire of Corpses (2015) BDRip 720p | AniDub, AniChaos | Login to leave a comment

Скачать через торрент [VIDEO] Очень хорошие девочки Very Good Girls бесплатно русская версия torrent активатор

Статистика раздачи
Размер:  769 MB   |    Зарегистрирован:  3 года 5 месяцев   |    .torrent скачан:  45 раз   |   
Раздают:  1  
   
загрузка...
 
Автор Сообщение

Galfimbul

avatar Galfimbul


Очень хорошие девочки
Very Good Girls

Год выпуска: 2013
Страна: США (Groundswell Productions, Herrick Productions)
Жанр: Драма
Продолжительность: 01:30:52
Перевод: Профессиональный (многоголосый закадровый)
Оригинальная дорожка: Нет
Cубтитры: Нет
Режиссер: Наоми Фонер / Naomi Foner
В ролях: Дакота Фэннинг, Элизабет Олсен, Бойд Холбрук, Эллен Баркин, Ричард Дрейфусс, Деми Мур, Стерлинг Джонс, Ленни Ароройо-Платт, Кирнан Шипка, Клер Фоли
Описание: Две нью-йоркские девушки договариваются потерять свою девственность в первое лето после окончания школы. Но получается так, что они обе влюбляются в одного уличного артиста…

Качество: HDRip (Рип с BDRip 1080p)
Формат: MP4
Видео: AVC, 960x400 (2.40:1), 1048 kbps, 23.976 fps
Аудио: Русский, AAC, 2 ch, 48 kHz, 128 kbps [MVO]
x264 [info]: frame I:933 Avg QP:13.95 size: 56003
x264 [info]: frame P:29216 Avg QP:17.41 size: 13617
x264 [info]: frame B:100540 Avg QP:19.99 size: 2628

x264 [total]: encoded 130689 frames, 11.19 fps, 1048.38 kb/s
General
Complete name : [VIDEO] Very.Good.Girls.2013.HDRip.x264.960x(semen_52-TNC).mp4
Format : MPEG-4
Format profile : Base Media
Codec ID : isom
File size : 769 MiB
Duration : 1h 30mn
Overall bit rate mode : Variable
Overall bit rate : 1 184 Kbps
Movie name : [VIDEO] Very Good Girls 2013 HDRip x264 960x(semen_52-TNC)
ContentType : Short Film
Encoded date : UTC 2015-01-26 19:05:37
Tagged date : UTC 2015-01-26 19:07:38
Writing application : MkvToMp4 version: 0.224 (x64)
Comment : Rip by semen_52-TNC

Video
ID : 1
Format : AVC
Format/Info : Advanced Video Codec
Format profile : [email protected]
Format settings, CABAC : Yes
Format settings, ReFrames : 8 frames
Codec ID : avc1
Codec ID/Info : Advanced Video Coding
Duration : 1h 30mn
Bit rate : 1 048 Kbps
Maximum bit rate : 5 791 Kbps
Width : 960 pixels
Height : 400 pixels
Display aspect ratio : 2.40:1
Frame rate mode : Constant
Frame rate : 23.976 fps
Color space : YUV
Chroma subsampling : 4:2:0
Bit depth : 8 bits
Scan type : Progressive
Bits/(Pixel*Frame) : 0.114
Stream size : 681 MiB (89%)
Writing library : x264 core 130 r2273 b3065e6
Encoding settings : cabac=1 / ref=8 / deblock=1:-3:-3 / analyse=0x3:0x133 / me=esa / subme=9 / psy=1 / psy_rd=0.90:0.15 / mixed_ref=1 / me_range=32 / chroma_me=1 / trellis=2 / 8x8dct=1 / cqm=0 / deadzone=21,11 / fast_pskip=0 / chroma_qp_offset=-3 / threads=12 / lookahead_threads=2 / sliced_threads=0 / nr=0 / decimate=1 / interlaced=0 / bluray_compat=0 / constrained_intra=0 / bframes=9 / b_pyramid=2 / b_adapt=2 / b_bias=0 / direct=1 / weightb=1 / open_gop=0 / weightp=2 / keyint=250 / keyint_min=25 / scenecut=40 / intra_refresh=0 / rc_lookahead=60 / rc=crf / mbtree=1 / crf=18.5 / qcomp=0.60 / qpmin=0 / qpmax=69 / qpstep=4 / ip_ratio=1.40 / aq=1:1.00
Language : English
Encoded date : UTC 2015-01-26 19:05:37
Tagged date : UTC 2015-01-26 19:06:25

Audio
ID : 2
Format : AAC
Format/Info : Advanced Audio Codec
Format profile : LC
Codec ID : 40
Duration : 1h 30mn
Bit rate mode : Variable
Bit rate : 128 Kbps
Maximum bit rate : 135 Kbps
Channel(s) : 2 channels
Channel positions : Front: L R
Sampling rate : 48.0 KHz
Compression mode : Lossy
Stream size : 83.2 MiB (11%)
Title : MVO
Language : Russian
Encoded date : UTC 2015-01-26 19:05:56
Tagged date : UTC 2015-01-26 19:06:25


Трекер:  [ 28-Янв-2015 22:30 ]

  

Скачать .torrent

Размер .torrent файла 15 KB


Размер: 769 MB
Хэш (hash) релиза: 0d40d33bd7aef7a6b9f09602f541ffc41fd59778

Еще никто не оставлял запись к записи скачать торрент [VIDEO] Очень хорошие девочки Very Good Girls . Будь первым!

!Обратная связь