28 ноября 2017
Continue reading

Скачать через торрент [VIDEO] Люблю твою жену The Right Kind of Wrong бесплатно русская версия torrent активатор

Статистика раздачи
Размер:  1.08 GB   |    Зарегистрирован:  3 года 2 месяца   |    .torrent скачан:  43 раза   |   
Раздают:  1  
   
загрузка...
 
Автор Сообщение

Galfimbul

avatar Galfimbul


Люблю твою жену
The Right Kind of Wrong

Год выпуска: 2013
Страна: Канада (Serendipity Point Films, Nomadic Pictures)
Жанр: Мелодрама, комедия
Продолжительность: 01:37:10
Перевод: Профессиональный (полное дублирование)
Оригинальная дорожка: Нет
Cубтитры: Нет
Режиссер: Джеримайя С. Чечик / Jeremiah S. Chechik
В ролях: Райан Квантен, Сара Каннинг, Райан МакПартлин, Кристен Хагер, Джеймс А. Вудс, Рауль Банеджа, Дженнифер Бэкстер, Уилл Сассо, Кэтрин О`Хара, Мария Менунос
Описание: Это история о писателе Лео, который вынужден мыть посуду, чтобы свести концы с концами. Помимо этого его бывшая жена выставляет все его многочисленные недостатки на суд общественности в своем супер-знаменитом блоге «Почему ты мудак». Но вот Лео встречает Коллет — девушку своей мечты. Теперь он сделает все, чтобы завоевать ее и заставит весь мир понять, как все заблуждались на его счет.

Качество: HDRip (Рип с BDRip 1080p)
Формат: MP4
Видео: AVC, 960x400 (2.40:1), 1456 kbps, 23.976 fps
Аудио: Русский, AAC, 2 ch, 48 kHz, 128 kbps [Dub]
x264 [info]: frame I:1463 Avg QP:15.86 size: 87780
x264 [info]: frame P:29873 Avg QP:19.68 size: 19651
x264 [info]: frame B:108451 Avg QP:23.55 size: 3188

x264 [total]: encoded 139787 frames, 4.15 fps, 1456.12 kb/s
General
Complete name : [VIDEO] Lyublyu.tvoyu.jenu.2013.HDRip.x264.960x(semen_52-TNC).mp4
Format : MPEG-4
Format profile : Base Media
Codec ID : isom
File size : 1.08 GiB
Duration : 1h 37mn
Overall bit rate mode : Variable
Overall bit rate : 1 592 Kbps
Movie name : [VIDEO] Lyublyu tvoyu jenu 2013 HDRip x264 960x(semen_52-TNC)
ContentType : Short Film
Encoded date : UTC 2015-01-26 18:57:02
Tagged date : UTC 2015-01-26 18:59:16
Writing application : MkvToMp4 version: 0.224 (x64)
Comment : Rip by semen_52-TNC

Video
ID : 1
Format : AVC
Format/Info : Advanced Video Codec
Format profile : [email protected]
Format settings, CABAC : Yes
Format settings, ReFrames : 8 frames
Codec ID : avc1
Codec ID/Info : Advanced Video Coding
Duration : 1h 37mn
Bit rate : 1 456 Kbps
Maximum bit rate : 10.5 Mbps
Width : 960 pixels
Height : 400 pixels
Display aspect ratio : 2.40:1
Frame rate mode : Constant
Frame rate : 23.976 fps
Color space : YUV
Chroma subsampling : 4:2:0
Bit depth : 8 bits
Scan type : Progressive
Bits/(Pixel*Frame) : 0.158
Stream size : 1 012 MiB (91%)
Writing library : x264 core 130 r2273 b3065e6
Encoding settings : cabac=1 / ref=8 / deblock=1:-3:-3 / analyse=0x3:0x133 / me=esa / subme=9 / psy=1 / psy_rd=1.00:0.15 / mixed_ref=1 / me_range=32 / chroma_me=1 / trellis=2 / 8x8dct=1 / cqm=0 / deadzone=21,11 / fast_pskip=0 / chroma_qp_offset=-3 / threads=12 / lookahead_threads=2 / sliced_threads=0 / nr=0 / decimate=1 / interlaced=0 / bluray_compat=0 / constrained_intra=0 / bframes=10 / b_pyramid=2 / b_adapt=2 / b_bias=0 / direct=1 / weightb=1 / open_gop=0 / weightp=2 / keyint=250 / keyint_min=25 / scenecut=40 / intra_refresh=0 / rc_lookahead=60 / rc=crf / mbtree=1 / crf=19.6 / qcomp=0.60 / qpmin=0 / qpmax=69 / qpstep=4 / ip_ratio=1.40 / aq=1:1.00
Language : English
Encoded date : UTC 2015-01-26 18:57:02
Tagged date : UTC 2015-01-26 18:57:46

Audio
ID : 2
Format : AAC
Format/Info : Advanced Audio Codec
Format profile : LC
Codec ID : 40
Duration : 1h 37mn
Bit rate mode : Variable
Bit rate : 128 Kbps
Maximum bit rate : 135 Kbps
Channel(s) : 2 channels
Channel positions : Front: L R
Sampling rate : 48.0 KHz
Compression mode : Lossy
Stream size : 89.0 MiB (8%)
Title : Dub
Language : Russian
Encoded date : UTC 2015-01-26 18:57:22
Tagged date : UTC 2015-01-26 18:57:46


Трекер:  [ 28-Янв-2015 22:30 ]

  

Скачать .torrent

Размер .torrent файла 11 KB


Размер: 1.08 GB
Хэш (hash) релиза: 671934faac63844d9cadb3a9f2fff43af7e0c9fa

Еще никто не оставлял запись к записи скачать торрент [VIDEO] Люблю твою жену The Right Kind of Wrong . Будь первым!

!Обратная связь