Мертвым повезло (2017) WEB-DLRip | iTunes | Olvidate De Nick BluRay MicroHD | You've Got Me, season 04 episode 17

Скачать через торрент [VIDEO] Мотель Сумка бесплатно русская версия torrent активатор

Статистика раздачи
Размер:  961 MB   |    Зарегистрирован:  3 года 5 месяцев   |    .torrent скачан:  36 раз   |   
Раздают:  1  
   
загрузка...
 
Автор Сообщение

Galfimbul

avatar Galfimbul


Мотель / Сумка
The Bag Man / Motel Room 13

Год выпуска: 2014
Страна: США, Багамы (Cinedigm, Red Granite Pictures, TinRes Entertainment)
Жанр: Триллер, криминал
Продолжительность: 01:48:49
Перевод: Профессиональный (многоголосый закадровый)
Оригинальная дорожка: Английский
Cубтитры: Русские полные, отключаемые
Режиссер: Дэвид Гровик / David Grovic
В ролях: Роберт Де Ниро, Джон Кьюсак, Ребекка Да Коста, Криспин Гловер, Доминик Пёрселл, Стикки Фингаз, Мартин Клеббэ, Дэвид Шамбрис, Чезз Менендес, Йен Маклафлин
Описание: Наемный убийца Джек Стаффорд получает несложное задание: приехать в заштатный мотель в 300 милях от Питтсбурга, получить сумку с таинственным содержимым и оставаться в номере, пока за грузом не приедут. Условие одно: ни при каких обстоятельствах не заглядывать внутрь сумки. Но поручение оказывается простым лишь на первый взгляд. Вскоре киллер понимает, что за доверенным ему предметом охотятся коррумпированные агенты ФБР, продажные полицейские, провинциальные гангстеры и кровожадный карлик-цыган из Сербии. И каждый хочет всадить в Джека пулю. Число жертв растет на глазах, и дожить до рассвета смогут далеко не все постояльцы мотеля.

Качество: HDRip (Рип с BDRip 1080p)
Формат: MP4
Видео: AVC, 960x400 (2.40:1), 968 kbps, 23.976 fps
Аудио 1: Русский, AAC, 2 ch, 48 kHz, 128 kbps [MVO]
Аудио 2: Английский, AAC, 2 ch, 48 kHz, 128 kbps [Original]
x264 [info]: frame I:1264 Avg QP:11.55 size: 47711
x264 [info]: frame P:32270 Avg QP:14.98 size: 12124
x264 [info]: frame B:122945 Avg QP:17.54 size: 2748

x264 [total]: encoded 156479 frames, 9.24 fps, 967.59 kb/s
General
Complete name : [VIDEO] Motel.2014.HDRip.x264.960x(semen_52-TNC).mp4
Format : MPEG-4
Format profile : Base Media
Codec ID : isom
File size : 961 MiB
Duration : 1h 48mn
Overall bit rate mode : Variable
Overall bit rate : 1 234 Kbps
Movie name : [VIDEO] Motel 2014 HDRip x264 960x(semen_52-TNC)
ContentType : Short Film
Encoded date : UTC 2015-01-27 19:34:56
Tagged date : UTC 2015-01-27 19:36:54
Writing application : MkvToMp4 version: 0.224 (x64)
Comment : Rip by semen_52-TNC

Video
ID : 1
Format : AVC
Format/Info : Advanced Video Codec
Format profile : [email protected]
Format settings, CABAC : Yes
Format settings, ReFrames : 8 frames
Codec ID : avc1
Codec ID/Info : Advanced Video Coding
Duration : 1h 48mn
Bit rate : 968 Kbps
Maximum bit rate : 6 445 Kbps
Width : 960 pixels
Height : 400 pixels
Display aspect ratio : 2.40:1
Frame rate mode : Constant
Frame rate : 23.976 fps
Color space : YUV
Chroma subsampling : 4:2:0
Bit depth : 8 bits
Scan type : Progressive
Bits/(Pixel*Frame) : 0.105
Stream size : 753 MiB (78%)
Writing library : x264 core 130 r2273 b3065e6
Encoding settings : cabac=1 / ref=8 / deblock=1:-3:-2 / analyse=0x3:0x133 / me=esa / subme=9 / psy=1 / psy_rd=0.90:0.15 / mixed_ref=1 / me_range=32 / chroma_me=1 / trellis=2 / 8x8dct=1 / cqm=0 / deadzone=21,11 / fast_pskip=0 / chroma_qp_offset=-3 / threads=12 / lookahead_threads=2 / sliced_threads=0 / nr=0 / decimate=1 / interlaced=0 / bluray_compat=0 / constrained_intra=0 / bframes=10 / b_pyramid=2 / b_adapt=2 / b_bias=0 / direct=1 / weightb=1 / open_gop=0 / weightp=2 / keyint=250 / keyint_min=25 / scenecut=40 / intra_refresh=0 / rc_lookahead=60 / rc=crf / mbtree=1 / crf=17.0 / qcomp=0.60 / qpmin=0 / qpmax=69 / qpstep=4 / ip_ratio=1.40 / aq=1:1.00
Language : English
Encoded date : UTC 2015-01-27 19:34:56
Tagged date : UTC 2015-01-27 19:35:21

Audio #1
ID : 2
Format : AAC
Format/Info : Advanced Audio Codec
Format profile : LC
Codec ID : 40
Duration : 1h 48mn
Bit rate mode : Variable
Bit rate : 128 Kbps
Maximum bit rate : 133 Kbps
Channel(s) : 2 channels
Channel positions : Front: L R
Sampling rate : 48.0 KHz
Compression mode : Lossy
Stream size : 99.6 MiB (10%)
Title : MVO
Language : Russian
Encoded date : UTC 2015-01-27 19:35:10
Tagged date : UTC 2015-01-27 19:35:21

Audio #2
ID : 3
Format : AAC
Format/Info : Advanced Audio Codec
Format profile : LC
Codec ID : 40
Duration : 1h 48mn
Bit rate mode : Variable
Bit rate : 128 Kbps
Maximum bit rate : 135 Kbps
Channel(s) : 2 channels
Channel positions : Front: L R
Sampling rate : 48.0 KHz
Compression mode : Lossy
Stream size : 99.6 MiB (10%)
Title : Original
Language : English
Encoded date : UTC 2015-01-27 19:35:16
Tagged date : UTC 2015-01-27 19:35:21

Text
ID : 4
Format : Timed Text
Muxing mode : sbtl
Codec ID : tx3g
Duration : 1h 46mn
Bit rate mode : Variable
Bit rate : 91 bps
Stream size : 71.2 KiB (0%)
Title : Full
Language : Russian
Encoded date : UTC 2015-01-27 19:35:21
Tagged date : UTC 2015-01-27 19:35:21


Трекер:  [ 28-Янв-2015 21:00 ]

  

Скачать .torrent

Размер .torrent файла 19 KB


Размер: 961 MB
Хэш (hash) релиза: 4541efd02f85da660b470e978b99217b7c2a32a0

Еще никто не оставлял запись к записи скачать торрент [VIDEO] Мотель Сумка . Будь первым!

!Обратная связь