BD Hello Kiniro Mosaic Subtitle Indonesia | Kick the Drink... Easily! | We have a variety of services and departments here at the Sands Expo to assist you in having a successful event. These services include:

Скачать через торрент [VIDEO] Судья The Judge бесплатно русская версия torrent активатор

Статистика раздачи
Размер:  1.73 GB   |    Зарегистрирован:  3 года 5 месяцев   |    .torrent скачан:  63 раза   |   
Раздают:  1  
   
загрузка...
 
Автор Сообщение

Galfimbul

avatar Galfimbul


Судья
The Judge

Год выпуска: 2014
Страна: США (Warner Bros., Big Kid Pictures, Team Downey)
Жанр: Драма
Продолжительность: 02:21:26
Перевод: Профессиональный (дублированный)
Оригинальная дорожка: Английский
Cубтитры: Русские отключаемые, форсированные и полные
Режиссер: Дэвид Добкин / David Dobkin
В ролях: Роберт Дауни мл., Роберт Дювалл, Вера Фармига, Билли Боб Торнтон, Винсент Д`Онофрио, Джереми Стронг, Дэкс Шепард, Лейтон Мистер, Кен Ховард, Эмма Трамбле, Бальтазар Гетти, Дэвид Крамхолц, Грэйс Забриски, Дэнис О’Хэйр, Сара Ланкастер, Лонни Фармер, Мэтт Риди, Марк Кили, Джереми С. Холм, Катрин Каммингс
Описание: В центре истории — успешный адвокат, который приезжает в родной город на похороны матери и узнаёт, что его отца, городского судью, подозревают в убийстве. Герой решает задержаться, чтобы выяснить правду, и постепенно лучше узнаёт родственников, с которыми давно вообще никак не общался.

Качество: HDRip (Рип с BDRip 1080p)
Формат: MP4
Видео: AVC, 960x400 (2.40:1), 1484 kbps, 23.976 fps
Аудио 1: Русский, AAC, 2 ch, 48 kHz, 128 kbps [Dub]
Аудио 2: Английский, AAC, 2 ch, 48 kHz, 128 kbps [Original]
Оскар, 2015 год
Номинации (1):
Лучшая мужская роль второго плана (Роберт Дювалл)

Золотой глобус, 2015 год
Номинации (1):
Лучшая мужская роль второго плана (Роберт Дювалл)

Премия Гильдии актеров, 2015 год
Номинации (1):
Лучшая мужская роль второго плана (Роберт Дювалл)
Этот фильм является первым релизом от «Team Downey» – продакшн-компании Роберта Дауни мл. и его жены Сьюзан Дауни.
Януш Камински практически весь фильм снял на пленку, отказавшись от «цифры» в пользу классической картинки, полной света и теплых цветов.
Джек Николсон и Томми Ли Джонс рассматривались на роль, которая в итоге досталась Роберту Дюваллу.
Одной из основных претенденток на роль, которая досталась Вере Фармиге, была Элизабет Бэнкс.
Нигде в Америке съемочной группе не удалось найти зал суда, который можно было бы занять на три недели для работы над фильмом, поэтому декорации пришлось строить на огромном пустом складе в городе Норвуд, штат Массачусетс, США.
Судья говорит обвиняемому пойти в Индианаполис в начале августа, чтобы увидеть крупнейшего в мире быка. На самом деле на проходящей в этом городе ярмарке штата можно увидеть не быка, а самую крупную в мире свинью.
Количество мороженого в вафельном рожке Лорен то увеличивается, то уменьшается при смене кадра.
Когда Хэнк находится в закусочной, перед тем как отправиться на похороны своей матери, у него видна щетина над верхней губой, но спустя несколько минут на кладбище он уже чисто выбрит.
В сцене, где мать Марка Блэкуэлла плюет на стекло автомобиля, когда камера показывает изнутри машины, плевок виден на стекле. Затем, когда камера показывает снаружи отъезжающий автомобиль, то стекло абсолютно чистое. А в следующем кадре из машины он снова появляется на стекле.
В фильме на всех автомобилях из Индианы регистрационный номер расположен на переднем бампере. На самом деле в штате Индиана такое расположение номеров не используется.
В день похорон матери главного героя, когда семья собирается за столом в закусочной, один из братьев говорит, что они завтракали в этом месте каждую субботу в течение 35 лет. Позже, когда Хэнк вламывается в такую же закусочную, снаружи на здании можно заметить табличку «Established 1996» (Основано в 1996 году).
x264 [info]: frame I:1941 Avg QP:15.68 size: 71066
x264 [info]: frame P:39880 Avg QP:19.31 size: 19165
x264 [info]: frame B:161773 Avg QP:22.60 size: 4163

x264 [total]: encoded 203594 frames, 8.30 fps, 1484.46 kb/s
General
Complete name : [VIDEO] The.Judge.2014.HDRip.x264.960x(semen_52-TNC).mp4
Format : MPEG-4
Format profile : Base Media
Codec ID : isom
File size : 1.73 GiB
Duration : 2h 21mn
Overall bit rate mode : Variable
Overall bit rate : 1 752 Kbps
Movie name : [VIDEO] The Judge 2014 HDRip x264 960x(semen_52-TNC)
ContentType : Short Film
Encoded date : UTC 2015-01-27 14:10:37
Tagged date : UTC 2015-01-27 14:16:27
Writing application : MkvToMp4 version: 0.224 (x64)
Comment : Rip by semen_52-TNC

Video
ID : 1
Format : AVC
Format/Info : Advanced Video Codec
Format profile : [email protected]
Format settings, CABAC : Yes
Format settings, ReFrames : 8 frames
Codec ID : avc1
Codec ID/Info : Advanced Video Coding
Duration : 2h 21mn
Bit rate : 1 484 Kbps
Maximum bit rate : 10.2 Mbps
Width : 960 pixels
Height : 400 pixels
Display aspect ratio : 2.40:1
Frame rate mode : Constant
Frame rate : 23.976 fps
Color space : YUV
Chroma subsampling : 4:2:0
Bit depth : 8 bits
Scan type : Progressive
Bits/(Pixel*Frame) : 0.161
Stream size : 1.47 GiB (85%)
Writing library : x264 core 130 r2273 b3065e6
Encoding settings : cabac=1 / ref=8 / deblock=1:-3:-3 / analyse=0x3:0x133 / me=esa / subme=9 / psy=1 / psy_rd=1.00:0.15 / mixed_ref=1 / me_range=32 / chroma_me=1 / trellis=2 / 8x8dct=1 / cqm=0 / deadzone=21,11 / fast_pskip=0 / chroma_qp_offset=-3 / threads=12 / lookahead_threads=2 / sliced_threads=0 / nr=0 / decimate=1 / interlaced=0 / bluray_compat=0 / constrained_intra=0 / bframes=10 / b_pyramid=2 / b_adapt=2 / b_bias=0 / direct=1 / weightb=1 / open_gop=0 / weightp=2 / keyint=250 / keyint_min=25 / scenecut=40 / intra_refresh=0 / rc_lookahead=60 / rc=crf / mbtree=1 / crf=19.3 / qcomp=0.60 / qpmin=0 / qpmax=69 / qpstep=4 / ip_ratio=1.40 / aq=1:1.00
Language : English
Encoded date : UTC 2015-01-27 14:10:37
Tagged date : UTC 2015-01-27 14:13:12

Audio #1
ID : 2
Format : AAC
Format/Info : Advanced Audio Codec
Format profile : LC
Codec ID : 40
Duration : 2h 21mn
Bit rate mode : Variable
Bit rate : 128 Kbps
Maximum bit rate : 135 Kbps
Channel(s) : 2 channels
Channel positions : Front: L R
Sampling rate : 48.0 KHz
Compression mode : Lossy
Stream size : 130 MiB (7%)
Title : Dub
Language : Russian
Encoded date : UTC 2015-01-27 14:10:58
Tagged date : UTC 2015-01-27 14:13:12

Audio #2
ID : 3
Format : AAC
Format/Info : Advanced Audio Codec
Format profile : LC
Codec ID : 40
Duration : 2h 21mn
Bit rate mode : Variable
Bit rate : 128 Kbps
Maximum bit rate : 135 Kbps
Channel(s) : 2 channels
Channel positions : Front: L R
Sampling rate : 48.0 KHz
Compression mode : Lossy
Stream size : 130 MiB (7%)
Title : Original
Language : English
Encoded date : UTC 2015-01-27 14:12:02
Tagged date : UTC 2015-01-27 14:13:12

Text #1
ID : 4
Format : Timed Text
Muxing mode : sbtl
Codec ID : tx3g
Duration : 2h 16mn
Bit rate mode : Variable
Bit rate : 1 bps
Stream size : 1.49 KiB (0%)
Title : Forced
Language : Russian
Encoded date : UTC 2015-01-27 14:13:12
Tagged date : UTC 2015-01-27 14:13:12

Text #2
ID : 5
Format : Timed Text
Muxing mode : sbtl
Codec ID : tx3g
Duration : 2h 16mn
Bit rate mode : Variable
Bit rate : 110 bps
Stream size : 109 KiB (0%)
Title : Full
Language : Russian
Encoded date : UTC 2015-01-27 14:13:12
Tagged date : UTC 2015-01-27 14:13:12


Трекер:  [ 28-Янв-2015 08:30 ]

  

Скачать .torrent

Размер .torrent файла 18 KB


Размер: 1.73 GB
Хэш (hash) релиза: c39ae4a31f626bc001edc267907fde82acb816d3

Еще никто не оставлял запись к записи скачать торрент [VIDEO] Судья The Judge . Будь первым!

!Обратная связь