Scott Glenn | DMCA Policy | Gatos. Un viaje de vuelta a casa

Скачать через торрент музыку Initial D Fourth Stage Music Complete Box, 2007, FLAC бесплатно без регистрации torrent

Статистика раздачи
Размер:  2.62 GB   |    Зарегистрирован:  3 года 6 месяцев   |    .torrent скачан:  57 раз   |   
Раздают:  1  
   
загрузка...
 
Автор Сообщение

Galfimbul

avatar Galfimbul


Initial D Fourth Stage Music Complete Box
Жанр: Eurobeat/Hi-NRG/Anime OST/JPop
Производитель: Япония
Год выпуска: 2007
Аудио кодек: FLAC (*.flac)
Битрейт аудио: lossless
Тип рипа: tracks+.cue
Продолжительность: 00:05:56:13
Источник: what.cd [Lebon14]
Сканы: Имеются
:: [url=...3252417]RG Soundtracks[/url] :: [url=...1681743]Initial D Music Collection[/url] :: [url=...1235310]Super Eurobeat Collection[/url] ::
Disc 1:01. m.o.v.e - Dogfight (4:22)02. Manuel - Let's Go, Come On (5:09)03. Fastway - Go Beat Crazy (5:57)04. Digital Planet - We'll See Heaven (4:27)05. Spock - The Fire's On Me (5:11)06. D-Team - Speed Car (5:41)07. Fastway - Revolution (4:49)08. Dino Starr - Give Me Your Love (5:13)09. SylverR - Night Trip (5:29)10. Maiko - Don't Go Baby (4:04)11. Lia - All Around (4:53)12. Nutty - Secret Love (4:43)13. Symbol - Forever Young (6:21)14. Lia - Sky High (6:02)
Exact Audio Copy V1.0 beta 3 from 29. August 2011

EAC extraction logfile from 23. January 2015, 4:34

Various Artists / Initial D Fourth Stage Music Complete Box

Used drive : HL-DT-STBD-RE UH10LS20 Adapter: 0 ID: 2

Read mode : SecureUtilize accurate stream : YesDefeat audio cache : YesMake use of C2 pointers : No

Read offset correction : 667Overread into Lead-In and Lead-Out : NoFill up missing offset samples with silence : YesDelete leading and trailing silent blocks : NoNull samples used in CRC calculations : YesUsed interface : Native Win32 interface for Win NT & 2000Gap handling : Appended to previous track

Used output format : User Defined EncoderSelected bitrate : 1024 kBit/sQuality : HighAdd ID3 tag : NoCommand line compressor : C:\Program Files (x86)\Exact Audio Copy\Flac\flac.exeAdditional command line options : -8 -V -T "ARTIST=%artist%" -T "TITLE=%title%" -T "ALBUM=%albumtitle%" -T "DATE=%year%" -T "TRACKNUMBER=%tracknr%" -T "GENRE=%genre%" -T "PERFORMER=%albuminterpret%" -T "COMPOSER=%composer%" %haslyrics%--tag-from-file=LYRICS="%lyricsfile%"%haslyrics% -T "ALBUMARTIST=%albumartist%" -T "DISCNUMBER=%cdnumber%" -T "TOTALDISCS=%totalcds%" -T "TOTALTRACKS=%numtracks%" -T "COMMENT=%comment%" %source% -o %dest%

TOC of the extracted CD

Track | Start | Length | Start sector | End sector --------------------------------------------------------- 1 | 0:00.00 | 4:21.60 | 0 | 19634 2 | 4:21.60 | 5:08.60 | 19635 | 42794 3 | 9:30.45 | 5:57.25 | 42795 | 69594 4 | 15:27.70 | 4:27.25 | 69595 | 89644 5 | 19:55.20 | 5:10.73 | 89645 | 112967 6 | 25:06.18 | 5:41.10 | 112968 | 138552 7 | 30:47.28 | 4:48.39 | 138553 | 160191 8 | 35:35.67 | 5:12.38 | 160192 | 183629 9 | 40:48.30 | 5:29.37 | 183630 | 208341 10 | 46:17.67 | 4:04.18 | 208342 | 226659 11 | 50:22.10 | 4:52.47 | 226660 | 248606 12 | 55:14.57 | 4:42.46 | 248607 | 269802 13 | 59:57.28 | 6:20.40 | 269803 | 298342 14 | 66:17.68 | 6:01.67 | 298343 | 325484

Track 1

Filename G:\Temp\New rips\Initial D 4th Stage Music Complete Box [FLAC]\Disc 1\01 - M.o.v.e - Dogfight.wav

Pre-gap length 0:00:02.00

Peak level 96.9 % Extraction speed 1.2 X Track quality 100.0 % Test CRC B3AEBC19 Copy CRC B3AEBC19 Track not present in AccurateRip database Copy OK

Track 2

Filename G:\Temp\New rips\Initial D 4th Stage Music Complete Box [FLAC]\Disc 1\02 - Manuel - Let's Go, Come On.wav

Pre-gap length 0:00:01.60

Peak level 97.7 % Extraction speed 1.4 X Track quality 100.0 % Test CRC A88DC4D6 Copy CRC A88DC4D6 Track not present in AccurateRip database Copy OK

Track 3

Filename G:\Temp\New rips\Initial D 4th Stage Music Complete Box [FLAC]\Disc 1\03 - Fastway - Go Beat Crazy.wav

Pre-gap length 0:00:01.58

Peak level 97.7 % Extraction speed 1.6 X Track quality 100.0 % Test CRC 93CC53E1 Copy CRC 93CC53E1 Track not present in AccurateRip database Copy OK

Track 4

Filename G:\Temp\New rips\Initial D 4th Stage Music Complete Box [FLAC]\Disc 1\04 - Digital Planet - We'll See Heaven.wav

Pre-gap length 0:00:01.57

Peak level 97.7 % Extraction speed 1.6 X Track quality 100.0 % Test CRC 6BE0741B Copy CRC 6BE0741B Track not present in AccurateRip database Copy OK

Track 5

Filename G:\Temp\New rips\Initial D 4th Stage Music Complete Box [FLAC]\Disc 1\05 - Spock - The Fire's On Me.wav

Pre-gap length 0:00:01.58

Peak level 97.7 % Extraction speed 1.8 X Track quality 100.0 % Test CRC ECCAECED Copy CRC ECCAECED Track not present in AccurateRip database Copy OK

Track 6

Filename G:\Temp\New rips\Initial D 4th Stage Music Complete Box [FLAC]\Disc 1\06 - D-Team - Speed Car.wav

Pre-gap length 0:00:01.57

Peak level 97.7 % Extraction speed 1.9 X Track quality 100.0 % Test CRC 5D9AA1F9 Copy CRC 5D9AA1F9 Track not present in AccurateRip database Copy OK

Track 7

Filename G:\Temp\New rips\Initial D 4th Stage Music Complete Box [FLAC]\Disc 1\07 - Fastway - Revolution.wav

Pre-gap length 0:00:01.58

Peak level 97.7 % Extraction speed 1.8 X Track quality 99.9 % Test CRC 0ED656D0 Copy CRC 0ED656D0 Track not present in AccurateRip database Copy OK

Track 8

Filename G:\Temp\New rips\Initial D 4th Stage Music Complete Box [FLAC]\Disc 1\08 - Dino Starr - Give Me Your Love.wav

Pre-gap length 0:00:01.60

Peak level 97.7 % Extraction speed 2.1 X Track quality 100.0 % Test CRC 7C9764AF Copy CRC 7C9764AF Track not present in AccurateRip database Copy OK

Track 9

Filename G:\Temp\New rips\Initial D 4th Stage Music Complete Box [FLAC]\Disc 1\09 - SylverR - Night Trip.wav

Pre-gap length 0:00:01.60

Peak level 97.7 % Extraction speed 2.2 X Track quality 100.0 % Test CRC 6DD2C6A3 Copy CRC 6DD2C6A3 Track not present in AccurateRip database Copy OK

Track 10

Filename G:\Temp\New rips\Initial D 4th Stage Music Complete Box [FLAC]\Disc 1\10 - Maiko - Don't Go Baby.wav

Pre-gap length 0:00:01.57

Peak level 97.7 % Extraction speed 2.2 X Track quality 100.0 % Test CRC DB9B34D2 Copy CRC DB9B34D2 Track not present in AccurateRip database Copy OK

Track 11

Filename G:\Temp\New rips\Initial D 4th Stage Music Complete Box [FLAC]\Disc 1\11 - Lia - All Around.wav

Pre-gap length 0:00:01.60

Peak level 97.7 % Extraction speed 2.3 X Track quality 100.0 % Test CRC 69EC7B6B Copy CRC 69EC7B6B Track not present in AccurateRip database Copy OK

Track 12

Filename G:\Temp\New rips\Initial D 4th Stage Music Complete Box [FLAC]\Disc 1\12 - Nutty - Secret Love.wav

Pre-gap length 0:00:01.57

Peak level 97.7 % Extraction speed 2.4 X Track quality 100.0 % Test CRC 46185667 Copy CRC 46185667 Track not present in AccurateRip database Copy OK

Track 13

Filename G:\Temp\New rips\Initial D 4th Stage Music Complete Box [FLAC]\Disc 1\13 - Symbol - Forever Young.wav

Pre-gap length 0:00:01.60

Peak level 97.7 % Extraction speed 2.6 X Track quality 100.0 % Test CRC F387A45C Copy CRC F387A45C Track not present in AccurateRip database Copy OK

Track 14

Filename G:\Temp\New rips\Initial D 4th Stage Music Complete Box [FLAC]\Disc 1\14 - Lia - Sky High.wav

Pre-gap length 0:00:01.60

Peak level 97.7 % Extraction speed 2.4 X Track quality 99.9 % Test CRC B78D007B Copy CRC B78D007B Track not present in AccurateRip database Copy OK

None of the tracks are present in the AccurateRip database

No errors occurred

End of status report

==== Log checksum 23B5748E640CE23174F0B4DAD63477B8FB1D28C12052C6E2A9F7E68276ABB6AA ====
REM GENRE EurobeatREM DATE 2007REM DISCID E210F30EREM COMMENT "ExactAudioCopy v1.0b3"CATALOG 4988064265312PERFORMER "Various Artists"TITLE "Initial D Fourth Stage Music Complete Box"FILE "01. m.o.v.e - Dogfight.wav" WAVE TRACK 01 AUDIO TITLE "Dogfight" PERFORMER "m.o.v.e" ISRC JPB600419201 INDEX 01 00:00:00 TRACK 02 AUDIO TITLE "Let's Go, Come On" PERFORMER "Manuel" INDEX 00 04:20:15FILE "02. Manuel - Let's Go, Come On.wav" WAVE INDEX 01 00:00:00 TRACK 03 AUDIO TITLE "Go Beat Crazy" PERFORMER "Fastway" ISRC JPB600653907 INDEX 00 05:07:16FILE "03. Fastway - Go Beat Crazy.wav" WAVE INDEX 01 00:00:00 TRACK 04 AUDIO TITLE "We'll See Heaven" PERFORMER "Digital Planet" INDEX 00 05:55:57FILE "04. Digital Planet - We'll See Heaven.wav" WAVE INDEX 01 00:00:00 TRACK 05 AUDIO TITLE "The Fire's On Me" PERFORMER "Spock" INDEX 00 04:25:56FILE "05. Spock - The Fire's On Me.wav" WAVE INDEX 01 00:00:00 TRACK 06 AUDIO TITLE "Speed Car" PERFORMER "D-Team" INDEX 00 05:09:30FILE "06. D-Team - Speed Car.wav" WAVE INDEX 01 00:00:00 TRACK 07 AUDIO TITLE "Revolution" PERFORMER "Fastway" INDEX 00 05:39:41FILE "07. Fastway - Revolution.wav" WAVE INDEX 01 00:00:00 TRACK 08 AUDIO TITLE "Give Me Your Love" PERFORMER "Dino Starr" INDEX 00 04:46:69FILE "08. Dino Starr - Give Me Your Love.wav" WAVE INDEX 01 00:00:00 TRACK 09 AUDIO TITLE "Night Trip" PERFORMER "SylverR" INDEX 00 05:10:68FILE "09. SylverR - Night Trip.wav" WAVE INDEX 01 00:00:00 TRACK 10 AUDIO TITLE "Don't Go Baby" PERFORMER "Maiko" INDEX 00 05:27:69FILE "10. Maiko - Don't Go Baby.wav" WAVE INDEX 01 00:00:00 TRACK 11 AUDIO TITLE "All Around" PERFORMER "Lia" INDEX 00 04:02:48FILE "11. Lia - All Around.wav" WAVE INDEX 01 00:00:00 TRACK 12 AUDIO TITLE "Secret Love" PERFORMER "Nutty" INDEX 00 04:51:04FILE "12. Nutty - Secret Love.wav" WAVE INDEX 01 00:00:00 TRACK 13 AUDIO TITLE "Forever Young" PERFORMER "Symbol" ISRC JPB600653901 INDEX 00 04:41:01FILE "13. Symbol - Forever Young.wav" WAVE INDEX 01 00:00:00 TRACK 14 AUDIO TITLE "Sky High" PERFORMER "Lia" INDEX 00 06:18:70FILE "14. Lia - Sky High.wav" WAVE INDEX 01 00:00:00
-----------------------

DON'T MODIFY THIS FILE

-----------------------

PERFORMER: auCDtect Task Manager, ver. 1.6.0 RC1 build 1.6.0.1Copyright (c) 2008-2010 y-soft. All rights reservedhttp://y-soft.org

ANALYZER: auCDtect: CD records authenticity detector, version 0.8.2Copyright (c) 2004 Oleg Berngardt. All rights reserved.Copyright (c) 2004 Alexander Djourik. All rights reserved.

FILE: 01. m.o.v.e - Dogfight.flac Size: 36534421 Hash: 98480F3E6842C907FB982B0C540658E9 Accuracy: -m0 Conclusion: CDDA 100% Signature: 0C4E0F98706AF2328E268B6DEB3B9EA5A4AD4087FILE: 02. Manuel - Let's Go, Come On.flac Size: 43513319 Hash: E500B19B04E215D1353E47460982FCC9 Accuracy: -m0 Conclusion: CDDA 100% Signature: 85B111E10114F090BBE053CE647E08C04ED633E9FILE: 03. Fastway - Go Beat Crazy.flac Size: 49089247 Hash: 40810E5D578E46D11E426A20B0BB1419 Accuracy: -m0 Conclusion: CDDA 100% Signature: DBA8DF5B22F2FADCA3350E22F76C822B6DE0BB5CFILE: 04. Digital Planet - We'll See Heaven.flac Size: 35894392 Hash: 19B8DAE30CA225BE6B678B2B44BD9678 Accuracy: -m0 Conclusion: CDDA 100% Signature: D0F671AB360422078C97C72DF8F0A7F6E0065AECFILE: 05. Spock - The Fire's On Me.flac Size: 43414234 Hash: 1B6FEC0857F2560A3E5870A7D2249AE0 Accuracy: -m0 Conclusion: CDDA 100% Signature: 12F61D62226EBB47E7E54313B35187EBBA6E5D5BFILE: 06. D-Team - Speed Car.flac Size: 46566981 Hash: E3533E08BDA501F0288E10F1802BB32B Accuracy: -m0 Conclusion: CDDA 100% Signature: A36A2BB0738254A9E0D7E71341D0B26F217822DBFILE: 07. Fastway - Revolution.flac Size: 38682823 Hash: 99C4F02887A7074457818137F066E1BA Accuracy: -m0 Conclusion: CDDA 99% Signature: 682A7D75034968D1E4D43075872AED521D00C23BFILE: 08. Dino Starr - Give Me Your Love.flac Size: 40661140 Hash: 6A7CDEC4384C12E7A0E87B3D0220DA74 Accuracy: -m0 Conclusion: CDDA 100% Signature: C1CBA375DCFA3E1B7F452578838B4FA3ECBF15B4FILE: 09. SylverR - Night Trip.flac Size: 43635093 Hash: D6F4E484D56159FC9D770D730681E0DC Accuracy: -m0 Conclusion: CDDA 100% Signature: AB60AA1B2ADC43CF35564AE6CEDEF6D6E82E1EC1FILE: 10. Maiko - Don't Go Baby.flac Size: 32428530 Hash: DE5D90FAEFD42DB5DAD86C894A91126D Accuracy: -m0 Conclusion: CDDA 100% Signature: 361AD42ADC758327235360DF93D2D681927EA362FILE: 11. Lia - All Around.flac Size: 39836255 Hash: 114E9399954E966258A1EA4A16032596 Accuracy: -m0 Conclusion: CDDA 100% Signature: E65262FF6BF3B45435E38A249FACA4BC84AFB699FILE: 12. Nutty - Secret Love.flac Size: 35228742 Hash: 3D2CD143FE607E2B1D47820A6B01D280 Accuracy: -m0 Conclusion: CDDA 100% Signature: FF915651FFE5DB629FE59868400FB0B86E6B003EFILE: 13. Symbol - Forever Young.flac Size: 51641277 Hash: 0296B8E9C90F1DA2D01C99BB2B164E1B Accuracy: -m0 Conclusion: CDDA 100% Signature: A3C5DD8D7BBFA9EBDC5E16ADF750BBC0534E9882FILE: 14. Lia - Sky High.flac Size: 47206205 Hash: 7C3D0CED9F2696D31F123FC2D3D3BB6C Accuracy: -m0 Conclusion: CDDA 100% Signature: F1078566FFA927ACD90DB483BFBD7426AD6FD6CD
[CUETools log; Date: 27.01.2015 16:57:04; Version: 2.1.5][CTDB TOCID: SR3qmH2P7_hIzcI39S4Nk6YR0VI-] found.Track | CTDB Status 1 | (1/1) Accurately ripped 2 | (1/1) Accurately ripped 3 | (1/1) Accurately ripped 4 | (1/1) Accurately ripped 5 | (1/1) Accurately ripped 6 | (1/1) Accurately ripped 7 | (1/1) Accurately ripped 8 | (1/1) Accurately ripped 9 | (1/1) Accurately ripped 10 | (1/1) Accurately ripped 11 | (1/1) Accurately ripped 12 | (1/1) Accurately ripped 13 | (1/1) Accurately ripped 14 | (1/1) Accurately ripped[AccurateRip ID: 0024888d-0186aa42-e210f30e] disk not present in database.

Track Peak [ CRC32 ] [W/O NULL] [ LOG ] -- 97,7 [4EC0AFEC] [E45902F9] 01 96,9 [B3AEBC19] [36DBBCF1] CRC32 02 97,7 [A88DC4D6] [79B570ED] CRC32 03 97,7 [93CC53E1] [8680C728] CRC32 04 97,7 [6BE0741B] [8935AE67] CRC32 05 97,7 [ECCAECED] [81D713E9] CRC32 06 97,7 [5D9AA1F9] [73466186] CRC32 07 97,7 [0ED656D0] [FF83CC44] CRC32 08 97,7 [7C9764AF] [020400CD] CRC32 09 97,7 [6DD2C6A3] [9683AE8A] CRC32 10 97,7 [DB9B34D2] [52847990] CRC32 11 97,7 [69EC7B6B] [C109C569] CRC32 12 97,7 [46185667] [3F571459] CRC32 13 97,7 [F387A45C] [8D018584] CRC32 14 97,7 [B78D007B] [9CD251B2] CRC32

Disc 2:01. m.o.v.e - Blast My Desire (5:25)02. Dusty - Midnight Lover (4:19)03. Mega NRG Man - Supertonic Lady (4:36)04. Digital Planet - Fly Away (5:02)05. Dark Angels - Right Now (5:19)06. Ace - Power of Sound (5:37)07. Jean Love - Steel Blade (5:13)08. Ace - Tokyo Lights (4:42)09. Ace - Drivin' Crazy (4:24)10. Fastway - Raising Hell (5:32)11. Jean Love - Movin' Up Moving Now (5:38)12. Manuel - On My Wings (5:07)13. Brian Ice - I Believe In Lovin' You (5:21)14. Manuel - What You Need (5:06)
Exact Audio Copy V1.0 beta 3 from 29. August 2011

EAC extraction logfile from 23. January 2015, 6:02

Various Artists / Initial D Fourth Stage Music Complete Box

Used drive : HL-DT-STBD-RE UH10LS20 Adapter: 0 ID: 2

Read mode : SecureUtilize accurate stream : YesDefeat audio cache : YesMake use of C2 pointers : No

Read offset correction : 667Overread into Lead-In and Lead-Out : NoFill up missing offset samples with silence : YesDelete leading and trailing silent blocks : NoNull samples used in CRC calculations : YesUsed interface : Native Win32 interface for Win NT & 2000Gap handling : Appended to previous track

Used output format : User Defined EncoderSelected bitrate : 1024 kBit/sQuality : HighAdd ID3 tag : NoCommand line compressor : C:\Program Files (x86)\Exact Audio Copy\Flac\flac.exeAdditional command line options : -8 -V -T "ARTIST=%artist%" -T "TITLE=%title%" -T "ALBUM=%albumtitle%" -T "DATE=%year%" -T "TRACKNUMBER=%tracknr%" -T "GENRE=%genre%" -T "PERFORMER=%albuminterpret%" -T "COMPOSER=%composer%" %haslyrics%--tag-from-file=LYRICS="%lyricsfile%"%haslyrics% -T "ALBUMARTIST=%albumartist%" -T "DISCNUMBER=%cdnumber%" -T "TOTALDISCS=%totalcds%" -T "TOTALTRACKS=%numtracks%" -T "COMMENT=%comment%" %source% -o %dest%

TOC of the extracted CD

Track | Start | Length | Start sector | End sector --------------------------------------------------------- 1 | 0:00.00 | 5:24.50 | 0 | 24349 2 | 5:24.50 | 4:18.63 | 24350 | 43762 3 | 9:43.38 | 4:36.10 | 43763 | 64472 4 | 14:19.48 | 5:02.32 | 64473 | 87154 5 | 19:22.05 | 5:18.68 | 87155 | 111072 6 | 24:40.73 | 5:37.05 | 111073 | 136352 7 | 30:18.03 | 5:13.12 | 136353 | 159839 8 | 35:31.15 | 4:42.10 | 159840 | 180999 9 | 40:13.25 | 4:23.67 | 181000 | 200791 10 | 44:37.17 | 5:31.63 | 200792 | 225679 11 | 50:09.05 | 5:38.05 | 225680 | 251034 12 | 55:47.10 | 5:07.25 | 251035 | 274084 13 | 60:54.35 | 5:20.55 | 274085 | 298139 14 | 66:15.15 | 5:06.17 | 298140 | 321106

Track 1

Filename G:\Temp\New rips\Initial D 4th Stage Music Complete Box [FLAC]\Disc 2\01 - M.o.v.e - Blast My Desire.wav

Pre-gap length 0:00:02.00

Peak level 89.0 % Extraction speed 1.1 X Track quality 99.9 % Test CRC BE9FB239 Copy CRC BE9FB239 Track not present in AccurateRip database Copy OK

Track 2

Filename G:\Temp\New rips\Initial D 4th Stage Music Complete Box [FLAC]\Disc 2\02 - Dusty - Midnight Lover.wav

Pre-gap length 0:00:01.58

Peak level 98.8 % Extraction speed 1.4 X Track quality 100.0 % Test CRC 2AB825F8 Copy CRC 2AB825F8 Track not present in AccurateRip database Copy OK

Track 3

Filename G:\Temp\New rips\Initial D 4th Stage Music Complete Box [FLAC]\Disc 2\03 - Mega NRG Man - Supertonic Lady.wav

Pre-gap length 0:00:01.57

Peak level 98.8 % Extraction speed 1.5 X Track quality 100.0 % Test CRC EA5810C6 Copy CRC EA5810C6 Track not present in AccurateRip database Copy OK

Track 4

Filename G:\Temp\New rips\Initial D 4th Stage Music Complete Box [FLAC]\Disc 2\04 - Digital Planet - Fly Away.wav

Pre-gap length 0:00:01.60

Peak level 98.8 % Extraction speed 1.5 X Track quality 99.9 % Test CRC 5BEF4152 Copy CRC 5BEF4152 Track not present in AccurateRip database Copy OK

Track 5

Filename G:\Temp\New rips\Initial D 4th Stage Music Complete Box [FLAC]\Disc 2\05 - Dark Angels - Right Now.wav

Pre-gap length 0:00:01.57

Peak level 100.0 % Extraction speed 1.8 X Track quality 100.0 % Test CRC 6DC066D0 Copy CRC 6DC066D0 Track not present in AccurateRip database Copy OK

Track 6

Filename G:\Temp\New rips\Initial D 4th Stage Music Complete Box [FLAC]\Disc 2\06 - Ace - Power Of Sound.wav

Pre-gap length 0:00:01.58

Peak level 93.3 % Extraction speed 1.9 X Track quality 100.0 % Test CRC 5C429DAA Copy CRC 5C429DAA Track not present in AccurateRip database Copy OK

Track 7

Filename G:\Temp\New rips\Initial D 4th Stage Music Complete Box [FLAC]\Disc 2\07 - Jean Love - Steel Blade.wav

Pre-gap length 0:00:04.04

Peak level 98.8 % Extraction speed 2.0 X Track quality 100.0 % Test CRC 6D440B95 Copy CRC 6D440B95 Track not present in AccurateRip database Copy OK

Track 8

Filename G:\Temp\New rips\Initial D 4th Stage Music Complete Box [FLAC]\Disc 2\08 - Ace - Tokyo Lights.wav

Pre-gap length 0:00:01.58

Peak level 93.3 % Extraction speed 2.1 X Track quality 100.0 % Test CRC A48BD179 Copy CRC A48BD179 Track not present in AccurateRip database Copy OK

Track 9

Filename G:\Temp\New rips\Initial D 4th Stage Music Complete Box [FLAC]\Disc 2\09 - Ace - Drivin' Crazy.wav

Pre-gap length 0:00:01.56

Peak level 98.8 % Extraction speed 2.1 X Track quality 100.0 % Test CRC 64818E80 Copy CRC 64818E80 Track not present in AccurateRip database Copy OK

Track 10

Filename G:\Temp\New rips\Initial D 4th Stage Music Complete Box [FLAC]\Disc 2\10 - Fastway - Raising Hell.wav

Pre-gap length 0:00:01.56

Peak level 98.8 % Extraction speed 2.3 X Track quality 100.0 % Test CRC DF57C229 Copy CRC DF57C229 Track not present in AccurateRip database Copy OK

Track 11

Filename G:\Temp\New rips\Initial D 4th Stage Music Complete Box [FLAC]\Disc 2\11 - Jean Love - Movin' Up Moving Now.wav

Pre-gap length 0:00:01.58

Peak level 98.8 % Extraction speed 2.4 X Track quality 100.0 % Test CRC 445462BB Copy CRC 445462BB Track not present in AccurateRip database Copy OK

Track 12

Filename G:\Temp\New rips\Initial D 4th Stage Music Complete Box [FLAC]\Disc 2\12 - Manuel - On My Wings.wav

Pre-gap length 0:00:01.57

Peak level 98.8 % Extraction speed 2.4 X Track quality 100.0 % Test CRC A541613F Copy CRC A541613F Track not present in AccurateRip database Copy OK

Track 13

Filename G:\Temp\New rips\Initial D 4th Stage Music Complete Box [FLAC]\Disc 2\13 - Brian Ice - I Believe In Lovin' You.wav

Pre-gap length 0:00:01.56

Peak level 98.8 % Extraction speed 2.5 X Track quality 100.0 % Test CRC 7B7F8554 Copy CRC 7B7F8554 Track not present in AccurateRip database Copy OK

Track 14

Filename G:\Temp\New rips\Initial D 4th Stage Music Complete Box [FLAC]\Disc 2\14 - Manuel - What You Need.wav

Pre-gap length 0:00:01.58

Peak level 98.8 % Extraction speed 2.6 X Track quality 100.0 % Test CRC 1607ADD0 Copy CRC 1607ADD0 Track not present in AccurateRip database Copy OK

None of the tracks are present in the AccurateRip database

No errors occurred

End of status report

==== Log checksum 4BB62F51D68C024216F27B9A67CE1511E05EB42A165D40E10C7F530C1927A528 ====
REM GENRE EurobeatREM DATE 2007REM DISCID C710B90EREM COMMENT "ExactAudioCopy v1.0b3"CATALOG 4988064265312PERFORMER "Various Artists"TITLE "Initial D Fourth Stage Music Complete Box"FILE "01. m.o.v.e - Blast My Desire.wav" WAVE TRACK 01 AUDIO TITLE "Blast My Desire" PERFORMER "m.o.v.e" ISRC JPB600381001 INDEX 01 00:00:00 TRACK 02 AUDIO TITLE "Midnight Lover" PERFORMER "Dusty" INDEX 00 05:23:06FILE "02. Dusty - Midnight Lover.wav" WAVE INDEX 01 00:00:00 TRACK 03 AUDIO TITLE "Supertonic Lady" PERFORMER "Mega NRG Man" INDEX 00 04:17:20FILE "03. Mega NRG Man - Supertonic Lady.wav" WAVE INDEX 01 00:00:00 TRACK 04 AUDIO TITLE "Fly Away" PERFORMER "Digital Planet" INDEX 00 04:34:40FILE "04. Digital Planet - Fly Away.wav" WAVE INDEX 01 00:00:00 TRACK 05 AUDIO TITLE "Right Now" PERFORMER "Dark Angels" INDEX 00 05:00:64FILE "05. Dark Angels - Right Now.wav" WAVE INDEX 01 00:00:00 TRACK 06 AUDIO TITLE "Power of Sound" PERFORMER "Ace" INDEX 00 05:17:24FILE "06. Ace - Power of Sound.wav" WAVE INDEX 01 00:00:00 TRACK 07 AUDIO TITLE "Steel Blade" PERFORMER "Jean Love" INDEX 00 05:33:02FILE "07. Jean Love - Steel Blade.wav" WAVE INDEX 01 00:00:00 TRACK 08 AUDIO TITLE "Tokyo Lights" PERFORMER "Ace" INDEX 00 05:11:43FILE "08. Ace - Tokyo Lights.wav" WAVE INDEX 01 00:00:00 TRACK 09 AUDIO TITLE "Drivin' Crazy" PERFORMER "Ace" INDEX 00 04:40:43FILE "09. Ace - Drivin' Crazy.wav" WAVE INDEX 01 00:00:00 TRACK 10 AUDIO TITLE "Raising Hell" PERFORMER "Fastway" INDEX 00 04:22:25FILE "10. Fastway - Raising Hell.wav" WAVE INDEX 01 00:00:00 TRACK 11 AUDIO TITLE "Movin' Up Moving Now" PERFORMER "Jean Love" INDEX 00 05:30:19FILE "11. Jean Love - Movin' Up Moving Now.wav" WAVE INDEX 01 00:00:00 TRACK 12 AUDIO TITLE "On My Wings" PERFORMER "Manuel" INDEX 00 05:36:37FILE "12. Manuel - On My Wings.wav" WAVE INDEX 01 00:00:00 TRACK 13 AUDIO TITLE "I Believe In Lovin' You" PERFORMER "Brian Ice" INDEX 00 05:05:58FILE "13. Brian Ice - I Believe In Lovin' You.wav" WAVE INDEX 01 00:00:00 TRACK 14 AUDIO TITLE "What You Need" PERFORMER "Manuel" INDEX 00 05:19:11FILE "14. Manuel - What You Need.wav" WAVE INDEX 01 00:00:00
-----------------------

DON'T MODIFY THIS FILE

-----------------------

PERFORMER: auCDtect Task Manager, ver. 1.6.0 RC1 build 1.6.0.1Copyright (c) 2008-2010 y-soft. All rights reservedhttp://y-soft.org

ANALYZER: auCDtect: CD records authenticity detector, version 0.8.2Copyright (c) 2004 Oleg Berngardt. All rights reserved.Copyright (c) 2004 Alexander Djourik. All rights reserved.

FILE: 01. m.o.v.e - Blast My Desire.flac Size: 44390027 Hash: D02BC410CB5ED78F1916C76D2FF17F09 Accuracy: -m0 Conclusion: CDDA 99% Signature: 2BD93CED885C06ADB976BD0DDA0A8484AC1A22EBFILE: 02. Dusty - Midnight Lover.flac Size: 36818132 Hash: 7416D1ED80D0A446A87AAAEE9544DD18 Accuracy: -m0 Conclusion: CDDA 100% Signature: 32F44D25690CC049C208D59AD7AA07D490412CFDFILE: 03. Mega NRG Man - Supertonic Lady.flac Size: 39002306 Hash: 2B9196DA033BB21FC083DB08210BBA6E Accuracy: -m0 Conclusion: CDDA 100% Signature: A4BA21611F843B02AD6CA799B3CEF83FECCAD49DFILE: 04. Digital Planet - Fly Away.flac Size: 41755369 Hash: 5223CC313D7CE9CCD45AFF1CFB7B7787 Accuracy: -m0 Conclusion: CDDA 100% Signature: 7010924978F6A9C7E95700B1C99F021209A2B1A1FILE: 05. Dark Angels - Right Now.flac Size: 40636010 Hash: 8A3EE24168833E966957638F00001D32 Accuracy: -m0 Conclusion: CDDA 99% Signature: EC05B2DC83A163B33CEF4594A663F2F816FE9514FILE: 06. Ace - Power of Sound.flac Size: 46751121 Hash: 8C7EBDC77FB688010F4F776BBA6AE5A2 Accuracy: -m0 Conclusion: CDDA 100% Signature: DC4FE300F00075ACBE52B6E17DB4314D130120B6FILE: 07. Jean Love - Steel Blade.flac Size: 43378355 Hash: 668E3439A1EFCF730DAFEB9C5955A984 Accuracy: -m0 Conclusion: CDDA 100% Signature: E62A4AAB3724C53E78CF13A94E4502751DCB8ACFFILE: 08. Ace - Tokyo Lights.flac Size: 39854667 Hash: 4144CDA26931639B5F4C2A9DF2B621E6 Accuracy: -m0 Conclusion: CDDA 100% Signature: 6FDFFE9145B3EB1F1258D04D6142C165FDB0AC4BFILE: 09. Ace - Drivin' Crazy.flac Size: 36265443 Hash: 9D22268602543BBBBA67CC52DDEF97B3 Accuracy: -m0 Conclusion: CDDA 100% Signature: EC7DE95B50E385BA17B73B7754E8D1A8EEE2E9B1FILE: 10. Fastway - Raising Hell.flac Size: 45778838 Hash: D722DD7F2DB30EFF2527E5B732B7872D Accuracy: -m0 Conclusion: CDDA 100% Signature: 5E120317E996230C84FABC6B215BBEAEA0F12DB6FILE: 11. Jean Love - Movin' Up Moving Now.flac Size: 45453520 Hash: FBDCD5F801852633F00AEBC70CD8D452 Accuracy: -m0 Conclusion: CDDA 100% Signature: 83F9B6954459E7F1A19E351CB1BD5353153C7629FILE: 12. Manuel - On My Wings.flac Size: 43413469 Hash: 80C5A752B776F2C81797BE8A9E5D3B79 Accuracy: -m0 Conclusion: CDDA 100% Signature: 4BF007AB14A368A444D15681BAFACBEE891FA57DFILE: 13. Brian Ice - I Believe In Lovin' You.flac Size: 44813573 Hash: 75695A19DA3A7A3CD863F8A21ABBEF24 Accuracy: -m0 Conclusion: CDDA 100% Signature: 525BB6B2C113ED5AB783A3D755AC95C8781C1731FILE: 14. Manuel - What You Need.flac Size: 43428109 Hash: EAFA5A87C8B992BC8B4766090F4A7207 Accuracy: -m0 Conclusion: CDDA 99% Signature: E1AF2A7F2DD667248C778BEBE805CD66ED45508A
[CUETools log; Date: 27.01.2015 16:57:15; Version: 2.1.5][CTDB TOCID: BFsavIh2reicp7zrShOgjUPzF5I-] found.Track | CTDB Status 1 | (1/1) Accurately ripped 2 | (1/1) Accurately ripped 3 | (1/1) Accurately ripped 4 | (1/1) Accurately ripped 5 | (1/1) Accurately ripped 6 | (1/1) Accurately ripped 7 | (1/1) Accurately ripped 8 | (1/1) Accurately ripped 9 | (1/1) Accurately ripped 10 | (1/1) Accurately ripped 11 | (1/1) Accurately ripped 12 | (1/1) Accurately ripped 13 | (1/1) Accurately ripped 14 | (1/1) Accurately ripped[AccurateRip ID: 00244c5e-01847858-c710b90e] disk not present in database.

Track Peak [ CRC32 ] [W/O NULL] [ LOG ] -- 99,9 [569EAB97] [962EECBD] 01 89,0 [BE9FB239] [ABFAFF24] CRC32 02 98,8 [2AB825F8] [C17A3B4F] CRC32 03 98,8 [EA5810C6] [AFEC0B5A] CRC32 04 98,8 [5BEF4152] [2B84850E] CRC32 05 99,9 [6DC066D0] [7C3B902F] CRC32 06 93,3 [5C429DAA] [C76D1B7E] CRC32 07 98,8 [6D440B95] [916257A7] CRC32 08 93,3 [A48BD179] [39491178] CRC32 09 98,8 [64818E80] [9F803B4A] CRC32 10 98,8 [DF57C229] [36E1EB0C] CRC32 11 98,8 [445462BB] [F48F0F57] CRC32 12 98,8 [A541613F] [32AC4FDF] CRC32 13 98,8 [7B7F8554] [55D4D926] CRC32 14 98,8 [1607ADD0] [EE9D1C26] CRC32

Disc 3:01. m.o.v.e - Noizy Tribe (4:03)02. Dave Rodgers - Wild Reputation 2005 (6:17)03. Chris T - I Wanna Be The Night (4:35)04. Maiko - Get The Future (5:04)05. Manuel - No Control (5:12)06. Powerful T. - Blood And Fire (4:29)07. Fastway - Kingo King'O Beat (5:29)08. Norma Sheffield - I Just Wanna Call You Now (5:26)09. Nick Mansell - Mission Impossible (5:05)10. Karen - Fly In The Sky (4:26)11. SaGa - Madoka (3:23)12. m.o.v.e - Nobody Reason (4:43)/[pre]
[pre]Exact Audio Copy V1.0 beta 3 from 29. August 2011

EAC extraction logfile from 23. January 2015, 7:30

Various Artists / Initial D Fourth Stage Music Complete Box

Used drive : HL-DT-STBD-RE UH10LS20 Adapter: 0 ID: 2

Read mode : Secure
Utilize accurate stream : Yes
Defeat audio cache : Yes
Make use of C2 pointers : No

Read offset correction : 667
Overread into Lead-In and Lead-Out : No
Fill up missing offset samples with silence : Yes
Delete leading and trailing silent blocks : No
Null samples used in CRC calculations : Yes
Used interface : Native Win32 interface for Win NT & 2000
Gap handling : Appended to previous track

Used output format : User Defined Encoder
Selected bitrate : 1024 kBit/s
Quality : High
Add ID3 tag : No
Command line compressor : C:\Program Files (x86)\Exact Audio Copy\Flac\flac.exe
Additional command line options : -8 -V -T "ARTIST=%artist%" -T "TITLE=%title%" -T "ALBUM=%albumtitle%" -T "DATE=%year%" -T "TRACKNUMBER=%tracknr%" -T "GENRE=%genre%" -T "PERFORMER=%albuminterpret%" -T "COMPOSER=%composer%" %haslyrics%--tag-from-file=LYRICS="%lyricsfile%"%haslyrics% -T "ALBUMARTIST=%albumartist%" -T "DISCNUMBER=%cdnumber%" -T "TOTALDISCS=%totalcds%" -T "TOTALTRACKS=%numtracks%" -T "COMMENT=%comment%" %source% -o %dest%

TOC of the extracted CD

Track | Start | Length | Start sector | End sector
---------------------------------------------------------
1 | 0:00.00 | 4:02.38 | 0 | 18187
2 | 4:02.38 | 6:16.72 | 18188 | 46459
3 | 10:19.35 | 4:35.15 | 46460 | 67099
4 | 14:54.50 | 5:04.28 | 67100 | 89927
5 | 19:59.03 | 5:11.50 | 89928 | 113302
6 | 25:10.53 | 4:28.55 | 113303 | 133457
7 | 29:39.33 | 5:29.32 | 133458 | 158164
8 | 35:08.65 | 5:26.20 | 158165 | 182634
9 | 40:35.10 | 5:04.65 | 182635 | 205499
10 | 45:40.00 | 4:26.35 | 205500 | 225484
11 | 50:06.35 | 3:23.22 | 225485 | 240731
12 | 53:29.57 | 4:43.22 | 240732 | 261978

Track 1

Filename G:\Temp\New rips\Initial D 4th Stage Music Complete Box [FLAC]\Disc 3\01 - M.o.v.e - Noizy Tribe.wav

Pre-gap length 0:00:02.00

Peak level 89.0 %
Extraction speed 1.1 X
Track quality 100.0 %
Test CRC 37240CAF
Copy CRC 37240CAF
Track not present in AccurateRip database
Copy OK

Track 2

Filename G:\Temp\New rips\Initial D 4th Stage Music Complete Box [FLAC]\Disc 3\02 - Dave Rodgers - Wild Reputation 2005.wav

Pre-gap length 0:00:01.60

Peak level 100.0 %
Extraction speed 1.3 X
Track quality 100.0 %
Test CRC 50038181
Copy CRC 50038181
Track not present in AccurateRip database
Copy OK

Track 3

Filename G:\Temp\New rips\Initial D 4th Stage Music Complete Box [FLAC]\Disc 3\03 - Chris T - I Wanna Be The Night.wav

Pre-gap length 0:00:01.60

Peak level 98.8 %
Extraction speed 1.3 X
Track quality 99.9 %
Test CRC 65863614
Copy CRC 65863614
Track not present in AccurateRip database
Copy OK

Track 4

Filename G:\Temp\New rips\Initial D 4th Stage Music Complete Box [FLAC]\Disc 3\04 - Maiko - Get The Future.wav

Pre-gap length 0:00:01.58

Peak level 99.2 %
Extraction speed 1.5 X
Track quality 100.0 %
Test CRC 7202D53C
Copy CRC 7202D53C
Track not present in AccurateRip database
Copy OK

Track 5

Filename G:\Temp\New rips\Initial D 4th Stage Music Complete Box [FLAC]\Disc 3\05 - Manuel - No Control.wav

Pre-gap length 0:00:01.61

Peak level 99.2 %
Extraction speed 1.7 X
Track quality 100.0 %
Test CRC A85553E4
Copy CRC A85553E4
Track not present in AccurateRip database
Copy OK

Track 6

Filename G:\Temp\New rips\Initial D 4th Stage Music Complete Box [FLAC]\Disc 3\06 - Powerful T. - Blood And Fire.wav

Pre-gap length 0:00:01.58

Peak level 99.2 %
Extraction speed 1.7 X
Track quality 100.0 %
Test CRC EFAF65E4
Copy CRC EFAF65E4
Track not present in AccurateRip database
Copy OK

Track 7

Filename G:\Temp\New rips\Initial D 4th Stage Music Complete Box [FLAC]\Disc 3\07 - Fastway - Kingo King'O Beat.wav

Pre-gap length 0:00:01.60

Peak level 99.2 %
Extraction speed 1.9 X
Track quality 100.0 %
Test CRC 8BBB4C80
Copy CRC 8BBB4C80
Track not present in AccurateRip database
Copy OK

Track 8

Filename G:\Temp\New rips\Initial D 4th Stage Music Complete Box [FLAC]\Disc 3\08 - Norma Sheffield - I Just Wanna Call You Now.wav

Pre-gap length 0:00:01.60

Peak level 99.2 %
Extraction speed 2.0 X
Track quality 100.0 %
Test CRC 692B7709
Copy CRC 692B7709
Track not present in AccurateRip database
Copy OK

Track 9

Filename G:\Temp\New rips\Initial D 4th Stage Music Complete Box [FLAC]\Disc 3\09 - Nick Mansell - Mission Impossible.wav

Pre-gap length 0:00:01.60

Peak level 99.2 %
Extraction speed 2.1 X
Track quality 100.0 %
Test CRC F85C12FC
Copy CRC F85C12FC
Track not present in AccurateRip database
Copy OK

Track 10

Filename G:\Temp\New rips\Initial D 4th Stage Music Complete Box [FLAC]\Disc 3\10 - Karen - Fly In The Sky.wav

Pre-gap length 0:00:01.60

Peak level 99.2 %
Extraction speed 2.1 X
Track quality 100.0 %
Test CRC D80EDA07
Copy CRC D80EDA07
Track not present in AccurateRip database
Copy OK

Track 11

Filename G:\Temp\New rips\Initial D 4th Stage Music Complete Box [FLAC]\Disc 3\11 - SaGa - 円 -Madoka-.wav

Pre-gap length 0:00:01.57

Peak level 99.2 %
Extraction speed 2.1 X
Track quality 100.0 %
Test CRC 96F43231
Copy CRC 96F43231
Track not present in AccurateRip database
Copy OK

Track 12

Filename G:\Temp\New rips\Initial D 4th Stage Music Complete Box [FLAC]\Disc 3\12 - M.o.v.e - Nobody Reason 〜ノアの方舟.wav

Pre-gap length 0:00:01.58

Peak level 96.5 %
Extraction speed 2.3 X
Track quality 100.0 %
Test CRC 8C69EAD0
Copy CRC 8C69EAD0
Track not present in AccurateRip database
Copy OK

None of the tracks are present in the AccurateRip database

No errors occurred

End of status report

==== Log checksum 05F6CBB95E8782D68AAB05C779755A97E6E2DAFB9E5328674810E79C90994E3D ====
REM GENRE EurobeatREM DATE 2007REM DISCID 7F0DA50CREM COMMENT "ExactAudioCopy v1.0b3"CATALOG 4988064265312PERFORMER "Various Artists"TITLE "Initial D Fourth Stage Music Complete Box"FILE "01. m.o.v.e - Noizy Tribe.wav" WAVE TRACK 01 AUDIO TITLE "Noizy Tribe" PERFORMER "m.o.v.e" ISRC JPB600484402 INDEX 01 00:00:00 TRACK 02 AUDIO TITLE "Wild Reputation 2005" PERFORMER "Dave Rodgers" INDEX 00 04:00:68FILE "02. Dave Rodgers - Wild Reputation 2005.wav" WAVE INDEX 01 00:00:00 TRACK 03 AUDIO TITLE "I Wanna Be The Night" PERFORMER "Chris T" INDEX 00 06:15:27FILE "03. Chris T - I Wanna Be The Night.wav" WAVE INDEX 01 00:00:00 TRACK 04 AUDIO TITLE "Get The Future" PERFORMER "Maiko" INDEX 00 04:33:46FILE "04. Maiko - Get The Future.wav" WAVE INDEX 01 00:00:00 TRACK 05 AUDIO TITLE "No Control" PERFORMER "Manuel" INDEX 00 05:02:57FILE "05. Manuel - No Control.wav" WAVE INDEX 01 00:00:00 TRACK 06 AUDIO TITLE "Blood And Fire" PERFORMER "Powerful T." INDEX 00 05:10:06FILE "06. Powerful T. - Blood And Fire.wav" WAVE INDEX 01 00:00:00 TRACK 07 AUDIO TITLE "Kingo King'O Beat" PERFORMER "Fastway" INDEX 00 04:27:10FILE "07. Fastway - Kingo King'O Beat.wav" WAVE INDEX 01 00:00:00 TRACK 08 AUDIO TITLE "I Just Wanna Call You Now" PERFORMER "Norma Sheffield" INDEX 00 05:27:62FILE "08. Norma Sheffield - I Just Wanna Call You Now.wav" WAVE INDEX 01 00:00:00 TRACK 09 AUDIO TITLE "Mission Impossible" PERFORMER "Nick Mansell" ISRC JPB600653908 INDEX 00 05:24:50FILE "09. Nick Mansell - Mission Impossible.wav" WAVE INDEX 01 00:00:00 TRACK 10 AUDIO TITLE "Fly In The Sky" PERFORMER "Karen" INDEX 00 05:03:20FILE "10. Karen - Fly In The Sky.wav" WAVE INDEX 01 00:00:00 TRACK 11 AUDIO TITLE "Madoka" PERFORMER "SaGa" ISRC JPB600559001 INDEX 00 04:24:67FILE "11. SaGa - Madoka.wav" WAVE INDEX 01 00:00:00 TRACK 12 AUDIO TITLE "Nobody Reason" PERFORMER "m.o.v.e" ISRC JPB600484504 INDEX 00 03:21:53FILE "12. m.o.v.e - Nobody Reason.wav" WAVE INDEX 01 00:00:00
-----------------------

DON'T MODIFY THIS FILE

-----------------------

PERFORMER: auCDtect Task Manager, ver. 1.6.0 RC1 build 1.6.0.1Copyright (c) 2008-2010 y-soft. All rights reservedhttp://y-soft.org

ANALYZER: auCDtect: CD records authenticity detector, version 0.8.2Copyright (c) 2004 Oleg Berngardt. All rights reserved.Copyright (c) 2004 Alexander Djourik. All rights reserved.

FILE: 01. m.o.v.e - Noizy Tribe.flac Size: 34145059 Hash: FDC17B45B71328789EFB54363F20D52A Accuracy: -m0 Conclusion: CDDA 99% Signature: E85D52DD8F4D89F34EA281BF566E2002CC02DF57FILE: 02. Dave Rodgers - Wild Reputation 2005.flac Size: 51392894 Hash: 9F457B6BB162365014044B1F68D12BC6 Accuracy: -m0 Conclusion: CDDA 100% Signature: 83DE33B19A1BFB769580158779B163FC62B8DC08FILE: 03. Chris T - I Wanna Be The Night.flac Size: 37868739 Hash: 752C35441F6A061F2E0C725E9BC349BB Accuracy: -m0 Conclusion: CDDA 100% Signature: C5809B5F19D52DF2F402ABD8601F51A109A54605FILE: 04. Maiko - Get The Future.flac Size: 39507196 Hash: 1B3893942D79CA8061E7CE1A3E6AC631 Accuracy: -m0 Conclusion: CDDA 100% Signature: F6901C445A4300CA9019D817F58615B8E10719CFFILE: 05. Manuel - No Control.flac Size: 44685573 Hash: 4045D0F796F5B2243462DBC45474E3AB Accuracy: -m0 Conclusion: CDDA 100% Signature: 8B25A3254ECE6EACCA66292B78C7CA0D9FE68BDBFILE: 06. Powerful T. - Blood And Fire.flac Size: 36080922 Hash: 7575366025CA97E201B1DDA361388DDA Accuracy: -m0 Conclusion: CDDA 100% Signature: 73C61B072273BC1566E764084752B4FF2D64C421FILE: 07. Fastway - Kingo King'O Beat.flac Size: 47028692 Hash: 902B673043F51D1209D418B4A1B47806 Accuracy: -m0 Conclusion: CDDA 100% Signature: 6501E963CEC39C4973C56129E8E7DEBD650759D6FILE: 08. Norma Sheffield - I Just Wanna Call You Now.flac Size: 47803705 Hash: 7C8A81A59D823289F77EF79CFFCBDAD4 Accuracy: -m0 Conclusion: CDDA 100% Signature: 2CD1E8EBDF351A9868F65D07684EBA8AA90D3C04FILE: 09. Nick Mansell - Mission Impossible.flac Size: 43274729 Hash: B8B20DC51D9D39C4A228EB6B032992BA Accuracy: -m0 Conclusion: CDDA 100% Signature: 81EFA5BFF463C65E84FCA008A8013168173F516CFILE: 10. Karen - Fly In The Sky.flac Size: 37997499 Hash: C6262D873C6CB9682862926306B462DD Accuracy: -m0 Conclusion: CDDA 100% Signature: 9E6E758B11CEEC73EBD4FE101026E01A664C1111FILE: 11. SaGa - Madoka.flac Size: 28028942 Hash: 3719CCF97C01857E055CD05545109E65 Accuracy: -m0 Conclusion: CDDA 100% Signature: 3ACFD71250473910FE8881353D76126A7C2183E3FILE: 12. m.o.v.e - Nobody Reason.flac Size: 37431072 Hash: 66C440D82599886FBF3E1B36E6CDB616 Accuracy: -m0 Conclusion: CDDA 100% Signature: E9D1D669D470931AE3744F5E1B6B4FD77B8D656A
[CUETools log; Date: 27.01.2015 16:57:24; Version: 2.1.5][CTDB TOCID: aKTHgq.B32OLAL83pnuo.78qTi0-] found.Track | CTDB Status 1 | (1/1) Accurately ripped 2 | (1/1) Accurately ripped 3 | (1/1) Accurately ripped 4 | (1/1) Accurately ripped 5 | (1/1) Accurately ripped 6 | (1/1) Accurately ripped 7 | (1/1) Accurately ripped 8 | (1/1) Accurately ripped 9 | (1/1) Accurately ripped 10 | (1/1) Accurately ripped 11 | (1/1) Accurately ripped 12 | (1/1) Accurately ripped[AccurateRip ID: 001a9855-00f7e7ae-7f0da50c] disk not present in database.

Track Peak [ CRC32 ] [W/O NULL] [ LOG ] -- 100,0 [33D92267] [A70799B0] 01 89,0 [37240CAF] [DC09D869] CRC32 02 100,0 [50038181] [A9F93475] CRC32 03 98,8 [65863614] [F6A1F40F] CRC32 04 99,2 [7202D53C] [322632B4] CRC32 05 99,2 [A85553E4] [AD1DD2AA] CRC32 06 99,2 [EFAF65E4] [7CA316F1] CRC32 07 99,2 [8BBB4C80] [3C77AEA8] CRC32 08 99,2 [692B7709] [EAE3045B] CRC32 09 99,2 [F85C12FC] [61091AB6] CRC32 10 99,2 [D80EDA07] [2B9CA18B] CRC32 11 99,2 [96F43231] [A2480476] CRC32 12 96,5 [8C69EAD0] [34793C95] CRC32
<pre>
</pre>

Disc 4:01. Matt Land - City Lover City Rider (4:29)02. Neo - Go Go Money (5:23)03. Mega NRG Man - Back On The Rocks (5:02)04. Pamsy - So Fragile (5:35)05. Go 2 - Looka Bomba (5:10)06. Ace - Rider of The Sky (5:13)07. Eurofunk - Stop To Give Up (5:40)08. Dave Rodgers - Eldorado (4:41)09. Kevin & Cherry - Chemical Love (5:48)10. Mr. M - All That I Want (5:32)11. Dave Rodgers - Lucky Man (4:30)12. Neo - Takumi (5:06)13. m.o.v.e - Rage Your Dream (4:33)

<pre>
</pre>
Exact Audio Copy V1.0 beta 3 from 29. August 2011

EAC extraction logfile from 23. January 2015, 8:58

Various Artists / Initial D Fourth Stage Music Complete Box

Used drive : HL-DT-STBD-RE UH10LS20 Adapter: 0 ID: 2

Read mode : SecureUtilize accurate stream : YesDefeat audio cache : YesMake use of C2 pointers : No

Read offset correction : 667Overread into Lead-In and Lead-Out : NoFill up missing offset samples with silence : YesDelete leading and trailing silent blocks : NoNull samples used in CRC calculations : YesUsed interface : Native Win32 interface for Win NT & 2000Gap handling : Appended to previous track

Used output format : User Defined EncoderSelected bitrate : 1024 kBit/sQuality : HighAdd ID3 tag : NoCommand line compressor : C:\Program Files (x86)\Exact Audio Copy\Flac\flac.exeAdditional command line options : -8 -V -T "ARTIST=%artist%" -T "TITLE=%title%" -T "ALBUM=%albumtitle%" -T "DATE=%year%" -T "TRACKNUMBER=%tracknr%" -T "GENRE=%genre%" -T "PERFORMER=%albuminterpret%" -T "COMPOSER=%composer%" %haslyrics%--tag-from-file=LYRICS="%lyricsfile%"%haslyrics% -T "ALBUMARTIST=%albumartist%" -T "DISCNUMBER=%cdnumber%" -T "TOTALDISCS=%totalcds%" -T "TOTALTRACKS=%numtracks%" -T "COMMENT=%comment%" %source% -o %dest%

TOC of the extracted CD

Track | Start | Length | Start sector | End sector --------------------------------------------------------- 1 | 0:00.00 | 4:28.60 | 0 | 20159 2 | 4:28.60 | 5:22.43 | 20160 | 44352 3 | 9:51.28 | 5:01.70 | 44353 | 66997 4 | 14:53.23 | 5:34.62 | 66998 | 92109 5 | 20:28.10 | 5:10.28 | 92110 | 115387 6 | 25:38.38 | 5:12.70 | 115388 | 138857 7 | 30:51.33 | 5:39.39 | 138858 | 164321 8 | 36:30.72 | 4:41.28 | 164322 | 185424 9 | 41:12.25 | 5:47.40 | 185425 | 211489 10 | 46:59.65 | 5:32.15 | 211490 | 236404 11 | 52:32.05 | 4:29.40 | 236405 | 256619 12 | 57:01.45 | 5:05.42 | 256620 | 279536 13 | 62:07.12 | 4:33.16 | 279537 | 300027

Track 1

Filename G:\Temp\New rips\Initial D 4th Stage Music Complete Box [FLAC]\Disc 4\01 - Matt Land - City Lover City Rider.wav

Pre-gap length 0:00:02.00

Peak level 99.2 % Extraction speed 1.2 X Track quality 100.0 % Test CRC CA893E16 Copy CRC CA893E16 Track not present in AccurateRip database Copy OK

Track 2

Filename G:\Temp\New rips\Initial D 4th Stage Music Complete Box [FLAC]\Disc 4\02 - Neo - Go Go Money.wav

Pre-gap length 0:00:01.58

Peak level 99.2 % Extraction speed 1.4 X Track quality 100.0 % Test CRC ED30E1F9 Copy CRC ED30E1F9 Track not present in AccurateRip database Copy OK

Track 3

Filename G:\Temp\New rips\Initial D 4th Stage Music Complete Box [FLAC]\Disc 4\03 - Mega NRG Man - Back On The Rocks.wav

Pre-gap length 0:00:01.58

Peak level 99.2 % Extraction speed 1.5 X Track quality 100.0 % Test CRC 66616D6C Copy CRC 66616D6C Track not present in AccurateRip database Copy OK

Track 4

Filename G:\Temp\New rips\Initial D 4th Stage Music Complete Box [FLAC]\Disc 4\04 - Pamsy - So Fragile.wav

Pre-gap length 0:00:01.58

Peak level 99.2 % Extraction speed 1.6 X Track quality 100.0 % Test CRC 4F0FE45F Copy CRC 4F0FE45F Track not present in AccurateRip database Copy OK

Track 5

Filename G:\Temp\New rips\Initial D 4th Stage Music Complete Box [FLAC]\Disc 4\05 - Go 2 - Looka Bomba.wav

Pre-gap length 0:00:01.60

Peak level 99.2 % Extraction speed 1.8 X Track quality 100.0 % Test CRC 35F7FECF Copy CRC 35F7FECF Track not present in AccurateRip database Copy OK

Track 6

Filename G:\Temp\New rips\Initial D 4th Stage Music Complete Box [FLAC]\Disc 4\06 - Ace - Rider Of The Sky.wav

Pre-gap length 0:00:01.58

Peak level 99.2 % Extraction speed 1.9 X Track quality 100.0 % Test CRC 9B55A246 Copy CRC 9B55A246 Track not present in AccurateRip database Copy OK

Track 7

Filename G:\Temp\New rips\Initial D 4th Stage Music Complete Box [FLAC]\Disc 4\07 - Eurofunk - Stop To Give Up.wav

Pre-gap length 0:00:01.58

Peak level 100.0 % Extraction speed 2.0 X Track quality 100.0 % Test CRC BDA7A861 Copy CRC BDA7A861 Track not present in AccurateRip database Copy OK

Track 8

Filename G:\Temp\New rips\Initial D 4th Stage Music Complete Box [FLAC]\Disc 4\08 - Dave Rodgers - Eldorado.wav

Pre-gap length 0:00:01.57

Peak level 100.0 % Extraction speed 2.0 X Track quality 100.0 % Test CRC E2597445 Copy CRC E2597445 Track not present in AccurateRip database Copy OK

Track 9

Filename G:\Temp\New rips\Initial D 4th Stage Music Complete Box [FLAC]\Disc 4\09 - Kevin & Cherry - Chemical Love.wav

Pre-gap length 0:00:01.57

Peak level 100.0 % Extraction speed 2.2 X Track quality 100.0 % Test CRC DCED1A84 Copy CRC DCED1A84 Track not present in AccurateRip database Copy OK

Track 10

Filename G:\Temp\New rips\Initial D 4th Stage Music Complete Box [FLAC]\Disc 4\10 - Mr. M - All That I Want.wav

Pre-gap length 0:00:01.60

Peak level 100.0 % Extraction speed 2.3 X Track quality 100.0 % Test CRC A28549A5 Copy CRC A28549A5 Track not present in AccurateRip database Copy OK

Track 11

Filename G:\Temp\New rips\Initial D 4th Stage Music Complete Box [FLAC]\Disc 4\11 - Dave Rodgers - Lucky Man.wav

Pre-gap length 0:00:01.60

Peak level 100.0 % Extraction speed 2.3 X Track quality 100.0 % Test CRC F0025175 Copy CRC F0025175 Track not present in AccurateRip database Copy OK

Track 12

Filename G:\Temp\New rips\Initial D 4th Stage Music Complete Box [FLAC]\Disc 4\12 - Neo - Takumi.wav

Pre-gap length 0:00:01.58

Peak level 100.0 % Extraction speed 2.4 X Track quality 100.0 % Test CRC 79F5FBAA Copy CRC 79F5FBAA Track not present in AccurateRip database Copy OK

Track 13

Filename G:\Temp\New rips\Initial D 4th Stage Music Complete Box [FLAC]\Disc 4\13 - M.o.v.e - Rage Your Dream.wav

Pre-gap length 0:00:01.58

Peak level 100.0 % Extraction speed 2.2 X Track quality 99.9 % Test CRC 2AA4688B Copy CRC 2AA4688B Track not present in AccurateRip database Copy OK

None of the tracks are present in the AccurateRip database

No errors occurred

End of status report

==== Log checksum 75228CE77E467C3C386DB3F829F1DFB694B316D787B0E36C6C01F60E0947F46F ====
REM GENRE EurobeatREM DATE 2007REM DISCID AD0FA00DREM COMMENT "ExactAudioCopy v1.0b3"CATALOG 4988064265312PERFORMER "Various Artists"TITLE "Initial D Fourth Stage Music Complete Box"FILE "01. Matt Land - City Lover City Rider.wav" WAVE TRACK 01 AUDIO TITLE "City Lover City Rider" PERFORMER "Matt Land" INDEX 01 00:00:00 TRACK 02 AUDIO TITLE "Go Go Money" PERFORMER "Neo" INDEX 00 04:27:16FILE "02. Neo - Go Go Money.wav" WAVE INDEX 01 00:00:00 TRACK 03 AUDIO TITLE "Back On The Rocks" PERFORMER "Mega NRG Man" INDEX 00 05:20:74FILE "03. Mega NRG Man - Back On The Rocks.wav" WAVE INDEX 01 00:00:00 TRACK 04 AUDIO TITLE "So Fragile" PERFORMER "Pamsy" INDEX 00 05:00:26FILE "04. Pamsy - So Fragile.wav" WAVE INDEX 01 00:00:00 TRACK 05 AUDIO TITLE "Looka Bomba" PERFORMER "Go 2" INDEX 00 05:33:17FILE "05. Go 2 - Looka Bomba.wav" WAVE INDEX 01 00:00:00 TRACK 06 AUDIO TITLE "Rider of The Sky" PERFORMER "Ace" INDEX 00 05:08:59FILE "06. Ace - Rider of The Sky.wav" WAVE INDEX 01 00:00:00 TRACK 07 AUDIO TITLE "Stop To Give Up" PERFORMER "Eurofunk" INDEX 00 05:11:26FILE "07. Eurofunk - Stop To Give Up.wav" WAVE INDEX 01 00:00:00 TRACK 08 AUDIO TITLE "Eldorado" PERFORMER "Dave Rodgers" INDEX 00 05:37:71FILE "08. Dave Rodgers - Eldorado.wav" WAVE INDEX 01 00:00:00 TRACK 09 AUDIO TITLE "Chemical Love" PERFORMER "Kevin & Cherry" INDEX 00 04:39:60FILE "09. Kevin & Cherry - Chemical Love.wav" WAVE INDEX 01 00:00:00 TRACK 10 AUDIO TITLE "All That I Want" PERFORMER "Mr. M" ISRC JPB600413304 INDEX 00 05:45:70FILE "10. Mr. M - All That I Want.wav" WAVE INDEX 01 00:00:00 TRACK 11 AUDIO TITLE "Lucky Man" PERFORMER "Dave Rodgers" INDEX 00 05:30:45FILE "11. Dave Rodgers - Lucky Man.wav" WAVE INDEX 01 00:00:00 TRACK 12 AUDIO TITLE "Takumi" PERFORMER "Neo" INDEX 00 04:27:71FILE "12. Neo - Takumi.wav" WAVE INDEX 01 00:00:00 TRACK 13 AUDIO TITLE "Rage Your Dream" PERFORMER "m.o.v.e" ISRC JPB609801601 INDEX 00 05:03:73FILE "13. m.o.v.e - Rage Your Dream.wav" WAVE INDEX 01 00:00:00
-----------------------

DON'T MODIFY THIS FILE

-----------------------

PERFORMER: auCDtect Task Manager, ver. 1.6.0 RC1 build 1.6.0.1Copyright (c) 2008-2010 y-soft. All rights reservedhttp://y-soft.org

ANALYZER: auCDtect: CD records authenticity detector, version 0.8.2Copyright (c) 2004 Oleg Berngardt. All rights reserved.Copyright (c) 2004 Alexander Djourik. All rights reserved.

FILE: 01. Matt Land - City Lover City Rider.flac Size: 38794263 Hash: 9F61790F81CC076D705029C0D6C71AE4 Accuracy: -m0 Conclusion: CDDA 100% Signature: C0126DE79789DD3BC61C8C0DF248772361174EF0FILE: 02. Neo - Go Go Money.flac Size: 45452487 Hash: 8DA5E8B47F19B6C36BA9E3C3A7AF2A54 Accuracy: -m0 Conclusion: CDDA 100% Signature: E23884C55CCE4807B7DEBF25BB5CAD5A0BFB9851FILE: 03. Mega NRG Man - Back On The Rocks.flac Size: 41193666 Hash: C074AB98F8A8F744C2671237CBE36F73 Accuracy: -m0 Conclusion: CDDA 100% Signature: 08610DB8A5F759BA3C1C2AE49817E20D8C9AFE8BFILE: 04. Pamsy - So Fragile.flac Size: 48581248 Hash: 414A7CBBAA956C37A877119583D76A01 Accuracy: -m0 Conclusion: CDDA 100% Signature: BF54661C0F0076BB81AC6678B3268DD1A0459F90FILE: 05. Go 2 - Looka Bomba.flac Size: 43102642 Hash: 5645087D394B376BCA6FFF649CED10C4 Accuracy: -m0 Conclusion: CDDA 100% Signature: FD5C29F3B3BF31D83FA242E516EFB16FD011E533FILE: 06. Ace - Rider of The Sky.flac Size: 44409157 Hash: 7F08B867BD66A52A826F6AEEFBB456F2 Accuracy: -m0 Conclusion: CDDA 100% Signature: 3091A44BC3ADDC0E7AB6DE3DAF71C5CDAD974E5AFILE: 07. Eurofunk - Stop To Give Up.flac Size: 44307447 Hash: CBF92725EC27F083A2DFD4F9426F5F22 Accuracy: -m0 Conclusion: CDDA 99% Signature: 17D1FE768D1371EAC07A7AF0E0BC8016C6B1E977FILE: 08. Dave Rodgers - Eldorado.flac Size: 37922052 Hash: 75E048E4A37978013070C59764202576 Accuracy: -m0 Conclusion: CDDA 99% Signature: FF648D6301E6FD4876754ED0E690E8406ACAD940FILE: 09. Kevin & Cherry - Chemical Love.flac Size: 48158483 Hash: 9B09D478698D6DA3576940D37B539705 Accuracy: -m0 Conclusion: CDDA 100% Signature: 64FE49B98949E0C61B0A33318616B1152A605345FILE: 10. Mr. M - All That I Want.flac Size: 45117976 Hash: 8B70FD51C546608DDDB094D6F881D1B8 Accuracy: -m0 Conclusion: CDDA 100% Signature: C4CC8A05FCA42A2729FE25A55B3E835BD033D190FILE: 11. Dave Rodgers - Lucky Man.flac Size: 37353774 Hash: 79E7CB217AD8F31215B0C97309D2A211 Accuracy: -m0 Conclusion: CDDA 100% Signature: C9372428C314A05747FF3C0FBAE3195F883B1A85FILE: 12. Neo - Takumi.flac Size: 43186682 Hash: 67C82806D7B49A199836BB32CCE916E8 Accuracy: -m0 Conclusion: CDDA 100% Signature: 575A644B8CCB2C53F36AF5A25826B64A13C4B924FILE: 13. m.o.v.e - Rage Your Dream.flac Size: 35945206 Hash: ACE61B8C114C14084FADAC469AD084F0 Accuracy: -m0 Conclusion: CDDA 100% Signature: 27DC6FCE1299E4340811ACEABC2BF54232DC0FE8
[CUETools log; Date: 27.01.2015 16:57:34; Version: 2.1.5][CTDB TOCID: 3sjQyqc6dS_lXKRJGRTqiRSsjGM-] found.Track | CTDB Status 1 | (1/1) Accurately ripped 2 | (1/1) Accurately ripped 3 | (1/1) Accurately ripped 4 | (1/1) Accurately ripped 5 | (1/1) Accurately ripped 6 | (1/1) Accurately ripped 7 | (1/1) Accurately ripped 8 | (1/1) Accurately ripped 9 | (1/1) Accurately ripped 10 | (1/1) Accurately ripped 11 | (1/1) Accurately ripped 12 | (1/1) Accurately ripped 13 | (1/1) Accurately ripped[AccurateRip ID: 002038ce-014329c9-ad0fa00d] disk not present in database.

Track Peak [ CRC32 ] [W/O NULL] [ LOG ] -- 99,9 [29946E7A] [9458398F] 01 99,2 [CA893E16] [180ACE48] CRC32 02 99,2 [ED30E1F9] [0B827570] CRC32 03 99,2 [66616D6C] [B6B5BA6F] CRC32 04 99,2 [4F0FE45F] [9C5DFED2] CRC32 05 99,2 [35F7FECF] [519EE003] CRC32 06 99,2 [9B55A246] [8C1A5113] CRC32 07 99,9 [BDA7A861] [83B4A8F3] CRC32 08 99,9 [E2597445] [6311B346] CRC32 09 99,9 [DCED1A84] [180E9AB4] CRC32 10 99,9 [A28549A5] [42A9847D] CRC32 11 99,9 [F0025175] [99E6CEC7] CRC32 12 99,9 [79F5FBAA] [B057F315] CRC32 13 99,9 [2AA4688B] [D1430D77] CRC32
<pre>
</pre>

Disc 5:01. m.o.v.e - Dogfight (TV-Size) (1:45)02. Atsushi Umebori - Project.D I (2:55)03. Atsushi Umebori - Sevenstar Leaf (2:07)04. Dennis Martin - Decide (1:53)05. Atsushi Umebori - Eye-Catch I (0:07)06. Atsushi Umebori - Everyday (1:34)07. Atsushi Umebori - Legend (1:25)08. Dennis Martin - Tactics (0:56)09. Atsushi Umebori - Todo-Juku (2:36)10. Dennis Martin - United (1:48)11. Atsushi Umebori - Eye-Catch II (0:06)12. Dennis Martin - Attack! I (1:35)13. Dennis Martin - Uneasiness (1:16)14. Dennis Martin - Chase! I (1:45)15. Atsushi Umebori - Chase! II (1:46)16. Atsushi Umebori - Unrest (1:28)17. Atsushi Umebori - Hard Training (1:33)18. Dennis Martin - Kyoko's Theme (1:30)19. Atsushi Umebori - Impreza (2:06)20. Atsushi Umebori - Attack! II (1:46)21. Atsushi Umebori - Anger! (2:03)22. Atsushi Umebori - Pinch! (2:10)23. Dennis Martin - High-Tension (1:11)24. Dennis Martin - Cappuccino (1:36)25. Dennis Martin - Eye-Catch III (0:09)26. Atsushi Umebori - Theme of AE86 -Action- (2:28)27. Dennis Martin - One Victory (1:46)28. Atsushi Umebori - Project.D II (1:46)29. m.o.v.e - Blast My Desire (TV-Size) (2:05)

<pre>
</pre>
Exact Audio Copy V1.0 beta 3 from 29. August 2011

EAC extraction logfile from 23. January 2015, 10:50

Various Artists / Initial D Fourth Stage Music Complete Box

Used drive : HL-DT-STBD-RE UH10LS20 Adapter: 0 ID: 2

Read mode : SecureUtilize accurate stream : YesDefeat audio cache : YesMake use of C2 pointers : No

Read offset correction : 667Overread into Lead-In and Lead-Out : NoFill up missing offset samples with silence : YesDelete leading and trailing silent blocks : NoNull samples used in CRC calculations : YesUsed interface : Native Win32 interface for Win NT & 2000Gap handling : Appended to previous track

Used output format : User Defined EncoderSelected bitrate : 1024 kBit/sQuality : HighAdd ID3 tag : NoCommand line compressor : C:\Program Files (x86)\Exact Audio Copy\Flac\flac.exeAdditional command line options : -8 -V -T "ARTIST=%artist%" -T "TITLE=%title%" -T "ALBUM=%albumtitle%" -T "DATE=%year%" -T "TRACKNUMBER=%tracknr%" -T "GENRE=%genre%" -T "PERFORMER=%albuminterpret%" -T "COMPOSER=%composer%" %haslyrics%--tag-from-file=LYRICS="%lyricsfile%"%haslyrics% -T "ALBUMARTIST=%albumartist%" -T "DISCNUMBER=%cdnumber%" -T "TOTALDISCS=%totalcds%" -T "TOTALTRACKS=%numtracks%" -T "COMMENT=%comment%" %source% -o %dest%

TOC of the extracted CD

Track | Start | Length | Start sector | End sector --------------------------------------------------------- 1 | 0:00.00 | 1:45.05 | 0 | 7879 2 | 1:45.05 | 2:54.40 | 7880 | 20969 3 | 4:39.45 | 2:06.40 | 20970 | 30459 4 | 6:46.10 | 1:52.57 | 30460 | 38916 5 | 8:38.67 | 0:07.25 | 38917 | 39466 6 | 8:46.17 | 1:34.35 | 39467 | 46551 7 | 10:20.52 | 1:25.23 | 46552 | 52949 8 | 11:46.00 | 0:56.35 | 52950 | 57184 9 | 12:42.35 | 2:36.37 | 57185 | 68921 10 | 15:18.72 | 1:47.55 | 68922 | 77001 11 | 17:06.52 | 0:05.63 | 77002 | 77439 12 | 17:12.40 | 1:35.20 | 77440 | 84584 13 | 18:47.60 | 1:16.35 | 84585 | 90319 14 | 20:04.20 | 1:44.50 | 90320 | 98169 15 | 21:48.70 | 1:46.22 | 98170 | 106141 16 | 23:35.17 | 1:27.43 | 106142 | 112709 17 | 25:02.60 | 1:32.40 | 112710 | 119649 18 | 26:35.25 | 1:29.42 | 119650 | 126366 19 | 28:04.67 | 2:06.13 | 126367 | 135829 20 | 30:11.05 | 1:46.30 | 135830 | 143809 21 | 31:57.35 | 2:03.02 | 143810 | 153036 22 | 34:00.37 | 2:09.40 | 153037 | 162751 23 | 36:10.02 | 1:11.35 | 162752 | 168111 24 | 37:21.37 | 1:35.60 | 168112 | 175296 25 | 38:57.22 | 0:09.03 | 175297 | 175974 26 | 39:06.25 | 2:27.50 | 175975 | 187049 27 | 41:34.00 | 1:46.35 | 187050 | 195034 28 | 43:20.35 | 1:45.60 | 195035 | 202969 29 | 45:06.20 | 2:05.15 | 202970 | 212359

Track 1

Filename G:\Temp\New rips\Initial D 4th Stage Music Complete Box [FLAC]\Disc 5\01 - M.o.v.e - Dogfight (TV-Size).wav

Pre-gap length 0:00:02.00

Peak level 94.3 % Extraction speed 0.9 X Track quality 100.0 % Test CRC A88A8D51 Copy CRC A88A8D51 Cannot be verified as accurate (confidence 1) [7ACAB0E6], AccurateRip returned [09ECE981] (AR v2) Copy OK

Track 2

Filename G:\Temp\New rips\Initial D 4th Stage Music Complete Box [FLAC]\Disc 5\02 - Atsushi Umebori - Project.D I.wav

Pre-gap length 0:00:02.30

Peak level 97.7 % Extraction speed 1.0 X Track quality 100.0 % Test CRC C65062BC Copy CRC C65062BC Cannot be verified as accurate (confidence 1) [DA01D02E], AccurateRip returned [88B15664] (AR v2) Copy OK

Track 3

Filename G:\Temp\New rips\Initial D 4th Stage Music Complete Box [FLAC]\Disc 5\03 - Atsushi Umebori - Sevenstar Leaf.wav

Pre-gap length 0:00:01.26

Peak level 97.7 % Extraction speed 1.0 X Track quality 100.0 % Test CRC CB257994 Copy CRC CB257994 Cannot be verified as accurate (confidence 1) [B8783E0A], AccurateRip returned [56BBC8CA] (AR v2) Copy OK

Track 4

Filename G:\Temp\New rips\Initial D 4th Stage Music Complete Box [FLAC]\Disc 5\04 - Dennis Martin - Decide.wav

Pre-gap length 0:00:01.26

Peak level 95.4 % Extraction speed 1.1 X Track quality 100.0 % Test CRC 5D49841B Copy CRC 5D49841B Cannot be verified as accurate (confidence 1) [98538EA9], AccurateRip returned [C2C8AD43] (AR v2) Copy OK

Track 5

Filename G:\Temp\New rips\Initial D 4th Stage Music Complete Box [FLAC]\Disc 5\05 - Atsushi Umebori - Eye-Catch I.wav

Pre-gap length 0:00:01.26

Peak level 97.7 % Extraction speed 0.2 X Track quality 100.0 % Test CRC D4C1326F Copy CRC D4C1326F Track not present in AccurateRip database Copy OK

Track 6

Filename G:\Temp\New rips\Initial D 4th Stage Music Complete Box [FLAC]\Disc 5\06 - Atsushi Umebori - Everyday.wav

Pre-gap length 0:00:01.26

Peak level 97.7 % Extraction speed 1.1 X Track quality 100.0 % Test CRC 807B0553 Copy CRC 807B0553 Cannot be verified as accurate (confidence 1) [6B54F128], AccurateRip returned [4BB19106] (AR v2) Copy OK

Track 7

Filename G:\Temp\New rips\Initial D 4th Stage Music Complete Box [FLAC]\Disc 5\07 - Atsushi Umebori - Legend.wav

Pre-gap length 0:00:01.29

Peak level 97.7 % Extraction speed 0.8 X Track quality 99.8 % Test CRC 53478A64 Copy CRC 53478A64 Cannot be verified as accurate (confidence 1) [A71F9236], AccurateRip returned [2DBE73E3] (AR v2) Copy OK

Track 8

Filename G:\Temp\New rips\Initial D 4th Stage Music Complete Box [FLAC]\Disc 5\08 - Dennis Martin - Tactics.wav

Pre-gap length 0:00:01.26

Peak level 97.7 % Extraction speed 0.9 X Track quality 100.0 % Test CRC 5B07EE8C Copy CRC 5B07EE8C Cannot be verified as accurate (confidence 1) [92EE129E], AccurateRip returned [43559648] (AR v2) Copy OK

Track 9

Filename G:\Temp\New rips\Initial D 4th Stage Music Complete Box [FLAC]\Disc 5\09 - Atsushi Umebori - Todo-Juku.wav

Peak level 97.7 % Extraction speed 1.3 X Track quality 100.0 % Test CRC A7DABC86 Copy CRC A7DABC86 Cannot be verified as accurate (confidence 1) [3AF8817B], AccurateRip returned [6277426C] (AR v2) Copy OK

Track 10

Filename G:\Temp\New rips\Initial D 4th Stage Music Complete Box [FLAC]\Disc 5\10 - Dennis Martin - United.wav

Pre-gap length 0:00:01.26

Peak level 97.7 % Extraction speed 1.2 X Track quality 100.0 % Test CRC 6D9691E2 Copy CRC 6D9691E2 Cannot be verified as accurate (confidence 1) [87A4CB6E], AccurateRip returned [090DDCF8] (AR v2) Copy OK

Track 11

Filename G:\Temp\New rips\Initial D 4th Stage Music Complete Box [FLAC]\Disc 5\11 - Atsushi Umebori - Eye-Catch II.wav

Peak level 94.3 % Extraction speed 0.2 X Track quality 100.0 % Test CRC 542BA619 Copy CRC 542BA619 Track not present in AccurateRip database Copy OK

Track 12

Filename G:\Temp\New rips\Initial D 4th Stage Music Complete Box [FLAC]\Disc 5\12 - Dennis Martin - Attack! I.wav

Peak level 97.7 % Extraction speed 1.0 X Track quality 99.8 % Test CRC 1759EA5A Copy CRC 1759EA5A Cannot be verified as accurate (confidence 1) [B03AE55A], AccurateRip returned [4DC8742C] (AR v2) Copy OK

Track 13

Filename G:\Temp\New rips\Initial D 4th Stage Music Complete Box [FLAC]\Disc 5\13 - Dennis Martin - Uneasiness.wav

Peak level 97.7 % Extraction speed 1.2 X Track quality 100.0 % Test CRC 54253686 Copy CRC 54253686 Cannot be verified as accurate (confidence 1) [4082E560], AccurateRip returned [B9119F80] (AR v2) Copy OK

Track 14

Filename G:\Temp\New rips\Initial D 4th Stage Music Complete Box [FLAC]\Disc 5\14 - Dennis Martin - Chase! I.wav

Pre-gap length 0:00:01.30

Peak level 93.3 % Extraction speed 1.3 X Track quality 100.0 % Test CRC 476E0170 Copy CRC 476E0170 Cannot be verified as accurate (confidence 1) [CD091937], AccurateRip returned [4E3AAAF9] (AR v2) Copy OK

Track 15

Filename G:\Temp\New rips\Initial D 4th Stage Music Complete Box [FLAC]\Disc 5\15 - Atsushi Umebori - Chase! II.wav

Pre-gap length 0:00:01.26

Peak level 97.7 % Extraction speed 1.4 X Track quality 100.0 % Test CRC D96DF176 Copy CRC D96DF176 Cannot be verified as accurate (confidence 1) [00A01F27], AccurateRip returned [A9651339] (AR v2) Copy OK

Track 16

Filename G:\Temp\New rips\Initial D 4th Stage Music Complete Box [FLAC]\Disc 5\16 - Atsushi Umebori - Unrest.wav

Pre-gap length 0:00:01.29

Peak level 96.2 % Extraction speed 1.3 X Track quality 100.0 % Test CRC 71E82286 Copy CRC 71E82286 Cannot be verified as accurate (confidence 1) [6539A179], AccurateRip returned [6ACDC511] (AR v2) Copy OK

Track 17

Filename G:\Temp\New rips\Initial D 4th Stage Music Complete Box [FLAC]\Disc 5\17 - Atsushi Umebori - Hard Training.wav

Pre-gap length 0:00:01.26

Peak level 97.7 % Extraction speed 1.4 X Track quality 100.0 % Test CRC 00B055AA Copy CRC 00B055AA Cannot be verified as accurate (confidence 1) [8AB5FA86], AccurateRip returned [78E495B4] (AR v2) Copy OK

Track 18

Filename G:\Temp\New rips\Initial D 4th Stage Music Complete Box [FLAC]\Disc 5\18 - Dennis Martin - Kyoko's Theme.wav

Peak level 97.7 % Extraction speed 1.4 X Track quality 100.0 % Test CRC 09340082 Copy CRC 09340082 Cannot be verified as accurate (confidence 1) [8B9D15B6], AccurateRip returned [B57A7B8E] (AR v2) Copy OK

Track 19

Filename G:\Temp\New rips\Initial D 4th Stage Music Complete Box [FLAC]\Disc 5\19 - Atsushi Umebori - Impreza.wav

Peak level 97.7 % Extraction speed 1.3 X Track quality 99.9 % Test CRC 2609C842 Copy CRC 2609C842 Cannot be verified as accurate (confidence 1) [21FB3B0E], AccurateRip returned [F52AEFAE] (AR v2) Copy OK

Track 20

Filename G:\Temp\New rips\Initial D 4th Stage Music Complete Box [FLAC]\Disc 5\20 - Atsushi Umebori - Attack! II.wav

Pre-gap length 0:00:01.30

Peak level 93.3 % Extraction speed 1.5 X Track quality 100.0 % Test CRC F9FEA48C Copy CRC F9FEA48C Cannot be verified as accurate (confidence 1) [172C5777], AccurateRip returned [3A7B688C] (AR v2) Copy OK

Track 21

Filename G:\Temp\New rips\Initial D 4th Stage Music Complete Box [FLAC]\Disc 5\21 - Atsushi Umebori - Anger!.wav

Peak level 97.7 % Extraction speed 1.6 X Track quality 100.0 % Test CRC 483E5E95 Copy CRC 483E5E95 Cannot be verified as accurate (confidence 1) [2C10C6CC], AccurateRip returned [3AF58335] (AR v2) Copy OK

Track 22

Filename G:\Temp\New rips\Initial D 4th Stage Music Complete Box [FLAC]\Disc 5\22 - Atsushi Umebori - Pinch!.wav

Pre-gap length 0:00:01.26

Peak level 97.7 % Extraction speed 1.7 X Track quality 100.0 % Test CRC 4C7A4F31 Copy CRC 4C7A4F31 Cannot be verified as accurate (confidence 1) [CF80B720], AccurateRip returned [6D49E05E] (AR v2) Copy OK

Track 23

Filename G:\Temp\New rips\Initial D 4th Stage Music Complete Box [FLAC]\Disc 5\23 - Dennis Martin - High-Tension.wav

Pre-gap length 0:00:01.29

Peak level 97.7 % Extraction speed 1.4 X Track quality 100.0 % Test CRC A7C475F0 Copy CRC A7C475F0 Cannot be verified as accurate (confidence 1) [0816E3C9], AccurateRip returned [3D1323BF] (AR v2) Copy OK

Track 24

Filename G:\Temp\New rips\Initial D 4th Stage Music Complete Box [FLAC]\Disc 5\24 - Dennis Martin - Cappuccino.wav

Peak level 97.7 % Extraction speed 1.6 X Track quality 100.0 % Test CRC E574E866 Copy CRC E574E866 Cannot be verified as accurate (confidence 1) [E9D4AD51], AccurateRip returned [3C814A2B] (AR v2) Copy OK

Track 25

Filename G:\Temp\New rips\Initial D 4th Stage Music Complete Box [FLAC]\Disc 5\25 - Dennis Martin - Eye-Catch III.wav

Peak level 97.7 % Extraction speed 0.4 X Track quality 100.0 % Test CRC 44B7843D Copy CRC 44B7843D Cannot be verified as accurate (confidence 1) [66F3F259], AccurateRip returned [AA1F44DD] (AR v2) Copy OK

Track 26

Filename G:\Temp\New rips\Initial D 4th Stage Music Complete Box [FLAC]\Disc 5\26 - Atsushi Umebori - Theme Of AE86 -Action-.wav

Pre-gap length 0:00:01.26

Peak level 94.3 % Extraction speed 1.8 X Track quality 100.0 % Test CRC FA43F4BB Copy CRC FA43F4BB Cannot be verified as accurate (confidence 1) [75D4C10D], AccurateRip returned [C8736AA7] (AR v2) Copy OK

Track 27

Filename G:\Temp\New rips\Initial D 4th Stage Music Complete Box [FLAC]\Disc 5\27 - Dennis Martin - One Victory.wav

Pre-gap length 0:00:01.30

Peak level 97.7 % Extraction speed 1.7 X Track quality 100.0 % Test CRC 2706E694 Copy CRC 2706E694 Cannot be verified as accurate (confidence 1) [874FBDFD], AccurateRip returned [32175741] (AR v2) Copy OK

Track 28

Filename G:\Temp\New rips\Initial D 4th Stage Music Complete Box [FLAC]\Disc 5\28 - Atsushi Umebori - Project.D II.wav

Pre-gap length 0:00:01.30

Peak level 97.7 % Extraction speed 1.7 X Track quality 100.0 % Test CRC 36D72686 Copy CRC 36D72686 Cannot be verified as accurate (confidence 1) [B80C083A], AccurateRip returned [85F60854] (AR v2) Copy OK

Track 29

Filename G:\Temp\New rips\Initial D 4th Stage Music Complete Box [FLAC]\Disc 5\29 - M.o.v.e - Blast My Desire (TV-Size).wav

Pre-gap length 0:00:02.30

Peak level 97.7 % Extraction speed 1.5 X Track quality 99.9 % Test CRC 660B691A Copy CRC 660B691A Cannot be verified as accurate (confidence 1) [A37892B2], AccurateRip returned [4DCF7873] (AR v2) Copy OK

27 track(s) could not be verified as accurate 2 track(s) not present in the AccurateRip database

No tracks could be verified as accurateYou may have a different pressing from the one(s) in the database

No errors occurred

End of status report

==== Log checksum CFAE51CD5CF95EFD3E30655C3C5B203EEA43AD54059D8A6B1CD44001F954C1E0 ====
REM GENRE SoundtrackREM DATE 2007REM DISCID 6F0B0F1DREM COMMENT "ExactAudioCopy v1.0b3"CATALOG 4988064220885PERFORMER "Various Artists"TITLE "Initial D Fourth Stage Music Complete Box"FILE "01. m.o.v.e - Dogfight (TV-Size).wav" WAVE TRACK 01 AUDIO TITLE "Dogfight (TV-Size)" PERFORMER "m.o.v.e" ISRC JPB600453101 INDEX 01 00:00:00 TRACK 02 AUDIO TITLE "Project.D I" PERFORMER "Atsushi Umebori" ISRC JPB600453102 INDEX 00 01:42:57FILE "02. Project.D I.wav" WAVE INDEX 01 00:00:00 TRACK 03 AUDIO TITLE "Sevenstar Leaf" PERFORMER "Atsushi Umebori" ISRC JPB600453103 INDEX 00 02:53:20FILE "03. Sevenstar Leaf.wav" WAVE INDEX 01 00:00:00 TRACK 04 AUDIO TITLE "Decide" PERFORMER "Dennis Martin" ISRC JPB600453104 INDEX 00 02:05:20FILE "04. Decide.wav" WAVE INDEX 01 00:00:00 TRACK 05 AUDIO TITLE "Eye-Catch I" PERFORMER "Atsushi Umebori" ISRC JPB600453105 INDEX 00 01:51:37FILE "05. Eye-Catch I.wav" WAVE INDEX 01 00:00:00 TRACK 06 AUDIO TITLE "Everyday" PERFORMER "Atsushi Umebori" ISRC JPB600453106 INDEX 00 00:06:05FILE "06. Everyday.wav" WAVE INDEX 01 00:00:00 TRACK 07 AUDIO TITLE "Legend" PERFORMER "Atsushi Umebori" ISRC JPB600453107 INDEX 00 01:33:13FILE "07. Legend.wav" WAVE INDEX 01 00:00:00 TRACK 08 AUDIO TITLE "Tactics" PERFORMER "Dennis Martin" ISRC JPB600453108 INDEX 00 01:24:03FILE "08. Tactics.wav" WAVE INDEX 01 00:00:00FILE "09. Todo-Juku.wav" WAVE TRACK 09 AUDIO TITLE "Todo-Juku" PERFORMER "Atsushi Umebori" ISRC JPB600453109 INDEX 01 00:00:00 TRACK 10 AUDIO TITLE "United" PERFORMER "Dennis Martin" ISRC JPB600453110 INDEX 00 02:35:17FILE "10. United.wav" WAVE INDEX 01 00:00:00FILE "11. Eye-Catch II.wav" WAVE TRACK 11 AUDIO TITLE "Eye-Catch II" PERFORMER "Atsushi Umebori" ISRC JPB600453111 INDEX 01 00:00:00FILE "12. Attack! I.wav" WAVE TRACK 12 AUDIO TITLE "Attack! I" PERFORMER "Dennis Martin" ISRC JPB600453112 INDEX 01 00:00:00FILE "13. Uneasiness.wav" WAVE TRACK 13 AUDIO TITLE "Uneasiness" PERFORMER "Dennis Martin" ISRC JPB600453113 INDEX 01 00:00:00 TRACK 14 AUDIO TITLE "Chase! I" PERFORMER "Dennis Martin" ISRC JPB600453114 INDEX 00 01:15:12FILE "14. Chase! I.wav" WAVE INDEX 01 00:00:00 TRACK 15 AUDIO TITLE "Chase! II" PERFORMER "Atsushi Umebori" ISRC JPB600453115 INDEX 00 01:43:30FILE "15. Chase! II.wav" WAVE INDEX 01 00:00:00 TRACK 16 AUDIO TITLE "Unrest" PERFORMER "Atsushi Umebori" ISRC JPB600453116 INDEX 00 01:45:00FILE "16. Unrest.wav" WAVE INDEX 01 00:00:00 TRACK 17 AUDIO TITLE "Hard Training" PERFORMER "Atsushi Umebori" ISRC JPB600453117 INDEX 00 01:26:23FILE "17. Hard Training.wav" WAVE INDEX 01 00:00:00FILE "18. Kyoko's Theme.wav" WAVE TRACK 18 AUDIO TITLE "Kyoko's Theme" PERFORMER "Dennis Martin" ISRC JPB600453118 INDEX 01 00:00:00FILE "19. Impreza.wav" WAVE TRACK 19 AUDIO TITLE "Impreza" PERFORMER "Atsushi Umebori" ISRC JPB600453119 INDEX 01 00:00:00 TRACK 20 AUDIO TITLE "Attack! II" PERFORMER "Atsushi Umebori" ISRC JPB600453120 INDEX 00 02:04:65FILE "20. Attack! II.wav" WAVE INDEX 01 00:00:00FILE "21. Anger!.wav" WAVE TRACK 21 AUDIO TITLE "Anger!" PERFORMER "Atsushi Umebori" ISRC JPB600453121 INDEX 01 00:00:00 TRACK 22 AUDIO TITLE "Pinch!" PERFORMER "Atsushi Umebori" ISRC JPB600453122 INDEX 00 02:01:57FILE "22. Pinch!.wav" WAVE INDEX 01 00:00:00 TRACK 23 AUDIO TITLE "High-Tension" PERFORMER "Dennis Martin" ISRC JPB600453123 INDEX 00 02:08:18FILE "23. High-Tension.wav" WAVE INDEX 01 00:00:00FILE "24. Cappuccino.wav" WAVE TRACK 24 AUDIO TITLE "Cappuccino" PERFORMER "Dennis Martin" ISRC JPB600453124 INDEX 01 00:00:00FILE "25. Eye-Catch III.wav" WAVE TRACK 25 AUDIO TITLE "Eye-Catch III" PERFORMER "Dennis Martin" ISRC JPB600453125 INDEX 01 00:00:00 TRACK 26 AUDIO TITLE "Theme of AE86 -Action-" PERFORMER "Atsushi Umebori" ISRC JPB600453126 INDEX 00 00:07:58FILE "26. Theme of AE86 -Action-.wav" WAVE INDEX 01 00:00:00 TRACK 27 AUDIO TITLE "One Victory" PERFORMER "Dennis Martin" ISRC JPB600453127 INDEX 00 02:26:27FILE "27. One Victory.wav" WAVE INDEX 01 00:00:00 TRACK 28 AUDIO TITLE "Project.D II" PERFORMER "Atsushi Umebori" ISRC JPB600453128 INDEX 00 01:45:12FILE "28. Project.D II.wav" WAVE INDEX 01 00:00:00 TRACK 29 AUDIO TITLE "Blast My Desire (TV-Size)" PERFORMER "m.o.v.e" ISRC JPB600453129 INDEX 00 01:43:37FILE "29. m.o.v.e - Blast My Desire (TV-Size).wav" WAVE INDEX 01 00:00:00
-----------------------

DON'T MODIFY THIS FILE

-----------------------

PERFORMER: auCDtect Task Manager, ver. 1.6.0 RC1 build 1.6.0.1Copyright (c) 2008-2010 y-soft. All rights reservedhttp://y-soft.org

ANALYZER: auCDtect: CD records authenticity detector, version 0.8.2Copyright (c) 2004 Oleg Berngardt. All rights reserved.Copyright (c) 2004 Alexander Djourik. All rights reserved.

FILE: 01. m.o.v.e - Dogfight (TV-Size).flac Size: 13338438 Hash: 6E8FB0666034431491EED8B00D5687CB Accuracy: -m0 Conclusion: CDDA 99% Signature: F2C8DA7321EE6012766A9B0F99F347DE948DAFA9FILE: 02. Project.D I.flac Size: 20946819 Hash: 8A68C35D6D3D84A12E9A3005B8DD8530 Accuracy: -m0 Conclusion: CDDA 100% Signature: 2F06F04A4631289762E5C7E01551FA5423D850BCFILE: 03. Sevenstar Leaf.flac Size: 16179702 Hash: 1FD7E34D4DA27339426FE1A56F4FC0AC Accuracy: -m0 Conclusion: CDDA 100% Signature: 17B4C5F21E9945A6420FE8CAEE7D931F42EA046DFILE: 04. Decide.flac Size: 11728130 Hash: E62CF487C5118E3D8577C10F0F24505E Accuracy: -m0 Conclusion: CDDA 100% Signature: F19716FD60C3362DF5CD96B42C8E20DB8F98862FFILE: 05. Eye-Catch I.flac Size: 569789 Hash: 5CC243EE8EEBF729C0482D24B9305C3E Accuracy: -m0 Conclusion: CDDA 100% Signature: 9BC9A8F69E2DBE1793A8C46225206D8D5393ACD6FILE: 06. Everyday.flac Size: 10354351 Hash: 99ECA5E5C7EB572EE22BE930AFB37215 Accuracy: -m0 Conclusion: CDDA 100% Signature: C16626C4899C9E0C2843F0347954A68D20EA47AEFILE: 07. Legend.flac Size: 8175936 Hash: 18352CC9332F80D561B69D1AAC0F5EC2 Accuracy: -m0 Conclusion: CDDA 100% Signature: 922DB4E343C45A4428A083906A176D5A08735821FILE: 08. Tactics.flac Size: 4757958 Hash: 274CED45E238B9652302421913CB153B Accuracy: -m0 Conclusion: CDDA 94% Signature: 25AA1E8317045B1CE8CC88CBB1F246DB2E5C1044FILE: 09. Todo-Juku.flac Size: 16826038 Hash: 1E8B6DC9D88DA2727E1DB6614A69E6EF Accuracy: -m0 Conclusion: CDDA 100% Signature: F400C0E7E8274FD172D6F1C2586165B7C98D3223FILE: 10. United.flac Size: 13310854 Hash: 649288072DE13498987F4074B6A6E747 Accuracy: -m0 Conclusion: CDDA 100% Signature: 5F5769FDE52C564569B47A23B035839B1F8E1D3FFILE: 11. Eye-Catch II.flac Size: 565995 Hash: 04AECDF38EAF33C633278668EE524ECD Accuracy: -m0 Conclusion: CDDA 100% Signature: 471820ADDE9DA45F04B90958D25BA04C38DD9508FILE: 12. Attack! I.flac Size: 11711116 Hash: C224D27A4B30A28A7A5B56EECAF1E6EC Accuracy: -m0 Conclusion: CDDA 100% Signature: 542AFD35D42EDFC4D70FB6130D8698F78842BDBDFILE: 13. Uneasiness.flac Size: 7339300 Hash: 2255380648A97514E1A8E2BDFA4DC69C Accuracy: -m0 Conclusion: CDDA 100% Signature: 34EA0A9671F30009B7FDA314CB0C18FFDFC17308FILE: 14. Chase! I.flac Size: 12209765 Hash: 4CB24B6377F5001E8AFF57C380FD5F17 Accuracy: -m0 Conclusion: CDDA 100% Signature: F5CE1CE01B6ABDED11AEB23787D80D952956B70DFILE: 15. Chase! II.flac Size: 13224057 Hash: 3E8AA45CE6ADE28EADD51CD1752783A3 Accuracy: -m0 Conclusion: CDDA 100% Signature: A0293CC59BEE2483AD6EA52262688D2AE48464B0FILE: 16. Unrest.flac Size: 7178640 Hash: E3CB60578397ECED3B9DC9158B262C04 Accuracy: -m0 Conclusion: CDDA 100% Signature: D63A0E024AC8B44230850AA76574973621E90774FILE: 17. Hard Training.flac Size: 10181135 Hash: 1A33BDF757499B900DFFD56E57645F72 Accuracy: -m0 Conclusion: CDDA 100% Signature: 52FA9AEAFD713DF5E038D93F75DD2C5728F43F52FILE: 18. Kyoko's Theme.flac Size: 8222541 Hash: 0A5682742476BB49A85642D72991130E Accuracy: -m0 Conclusion: CDDA 100% Signature: 0AE8F21E7C1DB73397BD0C7F6A9B6C922A6004CBFILE: 19. Impreza.flac Size: 15817271 Hash: FE801E9CB635988E59BC17B3846CD948 Accuracy: -m0 Conclusion: CDDA 100% Signature: 1760AEEF427E132D7FFE9A9F092424AC2009EFF8FILE: 20. Attack! II.flac Size: 13140987 Hash: B079FF936AD63D9E99CBBD077B408689 Accuracy: -m0 Conclusion: CDDA 100% Signature: 0905A668A3F9F67CAC00000724EFEC17A5DD5A69FILE: 21. Anger!.flac Size: 13778968 Hash: F712C87F1E7005186B646CFFFBF07F06 Accuracy: -m0 Conclusion: CDDA 100% Signature: E0A26506148A79F37506F75013E3EADC2D396E5CFILE: 22. Pinch!.flac Size: 15817481 Hash: B442545BD91C5B7070531A815B42D4B1 Accuracy: -m0 Conclusion: CDDA 100% Signature: 74DBE7068C17ECFFCFDDC3CA2D97524BB00B10D5FILE: 23. High-Tension.flac Size: 8471280 Hash: CE4FB9A7CF828BD0CBB606E571A80DFF Accuracy: -m0 Conclusion: CDDA 100% Signature: F8876C3F2DFC3F3820CA377901DB179165238D73FILE: 24. Cappuccino.flac Size: 11468643 Hash: C5F066086F14DC5BCEAC429165206F95 Accuracy: -m0 Conclusion: CDDA 99% Signature: 664E0303A071E218B306235914F8FDB18BF7DC8CFILE: 25. Eye-Catch III.flac Size: 746931 Hash: 7D91D9F4036482C825B2DB9D6D259EDF Accuracy: -m0 Conclusion: CDDA 100% Signature: 3C81B51022F2F09D2AB109B5160CA616DA14BB7BFILE: 26. Theme of AE86 -Action-.flac Size: 18763651 Hash: F0F2027D893454BAC90A794452ADAA31 Accuracy: -m0 Conclusion: CDDA 100% Signature: 7B03960570C3755E608299F79D3AC9A71CBBBC7CFILE: 27. One Victory.flac Size: 11118070 Hash: 9ED4CFB5140200214ABEAB987B18D228 Accuracy: -m0 Conclusion: CDDA 100% Signature: CF5C901793CAEE9B09F384720547F603CAA14D4AFILE: 28. Project.D II.flac Size: 10215558 Hash: 985689F2931E24060E7C16F4AA2DC5FE Accuracy: -m0 Conclusion: CDDA 100% Signature: 46836422613A5058B7096B76C57F28F4AEA20860FILE: 29. m.o.v.e - Blast My Desire (TV-Size).flac Size: 16212613 Hash: 7B1EB6C186028255B077909A22D127E4 Accuracy: -m0 Conclusion: CDDA 100% Signature: 9DCC163008863B12EFA7CE00104A561CF21D3B61
<pre>
</pre>

Disc 6:01. m.o.v.e - Noizy Tribe (TV-Size) (1:33)02. Atsushi Umebori - Begining of The Day (1:26)03. Daisuku Ogura - Wish (1:23)04. Atsushi Umebori - Opponent (1:34)05. Dennis Martin - Tea Break (2:45)06. Dennis Martin - Tension (1:18)07. Atsushi Umebori - Subtitle I (0:08)08. Atsushi Umebori - Happy Everyday (1:22)09. Dennis Martin - Natsuki's Theme (1:34)10. Atsushi Umebori - Impreza II (2:11)11. Atsushi Umebori - Riddle (2:16)12. Dennis Martin - Loser (1:17)13. Atsushi Umebori - Eye-Catch IV (0:09)14. Dennis Martin - Anxious (1:08)15. Atsushi Umebori - Theme of AE86 -Being- (1:47)16. Dennis Martin - Cappuccino II (1:50)17. Dennis Martin - Action (1:54)18. Kanako Ito - In Love I (1:25)19. Dennis Martin - Subtitle II (0:07)20. Atsushi Umebori - Ibushigin (1:55)21. Atsushi Umebori - Todo-Juku II (1:39)22. Dennis Martin - United II (2:09)23. Atsushi Umebori - Feelings (1:55)24. Daisuku Ogura - In Love II (1:27)25. Dennis Martin - Evening Glow (2:03)26. Atsushi Umebori - Subtitle III (0:09)27. m.o.v.e - Nobody Reason (TV-Size) (2:02)

<pre>
</pre>
Exact Audio Copy V1.0 beta 3 from 29. August 2011

EAC extraction logfile from 23. January 2015, 12:12

Various Artists / Initial D Fourth Stage Music Complete Box

Used drive : HL-DT-STBD-RE UH10LS20 Adapter: 0 ID: 2

Read mode : SecureUtilize accurate stream : YesDefeat audio cache : YesMake use of C2 pointers : No

Read offset correction : 667Overread into Lead-In and Lead-Out : NoFill up missing offset samples with silence : YesDelete leading and trailing silent blocks : NoNull samples used in CRC calculations : YesUsed interface : Native Win32 interface for Win NT & 2000Gap handling : Appended to previous track

Used output format : User Defined EncoderSelected bitrate : 1024 kBit/sQuality : HighAdd ID3 tag : NoCommand line compressor : C:\Program Files (x86)\Exact Audio Copy\Flac\flac.exeAdditional command line options : -8 -V -T "ARTIST=%artist%" -T "TITLE=%title%" -T "ALBUM=%albumtitle%" -T "DATE=%year%" -T "TRACKNUMBER=%tracknr%" -T "GENRE=%genre%" -T "PERFORMER=%albuminterpret%" -T "COMPOSER=%composer%" %haslyrics%--tag-from-file=LYRICS="%lyricsfile%"%haslyrics% -T "ALBUMARTIST=%albumartist%" -T "DISCNUMBER=%cdnumber%" -T "TOTALDISCS=%totalcds%" -T "TOTALTRACKS=%numtracks%" -T "COMMENT=%comment%" %source% -o %dest%

TOC of the extracted CD

Track | Start | Length | Start sector | End sector --------------------------------------------------------- 1 | 0:00.00 | 1:33.25 | 0 | 6999 2 | 1:33.25 | 1:25.57 | 7000 | 13431 3 | 2:59.07 | 1:23.10 | 13432 | 19666 4 | 4:22.17 | 1:33.43 | 19667 | 26684 5 | 5:55.60 | 2:44.45 | 26685 | 39029 6 | 8:40.30 | 1:17.67 | 39030 | 44871 7 | 9:58.22 | 0:08.08 | 44872 | 45479 8 | 10:06.30 | 1:21.62 | 45480 | 51616 9 | 11:28.17 | 1:33.43 | 51617 | 58634 10 | 13:01.60 | 2:11.07 | 58635 | 68466 11 | 15:12.67 | 2:15.48 | 68467 | 78639 12 | 17:28.40 | 1:17.15 | 78640 | 84429 13 | 18:45.55 | 0:08.45 | 84430 | 85074 14 | 18:54.25 | 1:08.15 | 85075 | 90189 15 | 20:02.40 | 1:47.07 | 90190 | 98221 16 | 21:49.47 | 1:50.28 | 98222 | 106499 17 | 23:40.00 | 1:54.35 | 106500 | 115084 18 | 25:34.35 | 1:25.32 | 115085 | 121491 19 | 26:59.67 | 0:07.35 | 121492 | 122051 20 | 27:07.27 | 1:55.08 | 122052 | 130684 21 | 29:02.35 | 1:38.40 | 130685 | 138074 22 | 30:41.00 | 2:09.00 | 138075 | 147749 23 | 32:50.00 | 1:55.02 | 147750 | 156376 24 | 34:45.02 | 1:27.05 | 156377 | 162906 25 | 36:12.07 | 2:03.00 | 162907 | 172131 26 | 38:15.07 | 0:09.35 | 172132 | 172841 27 | 38:24.42 | 2:02.05 | 172842 | 181996

Track 1

Filename G:\Temp\New rips\Initial D 4th Stage Music Complete Box [FLAC]\Disc 6\01 - M.o.v.e - Noizy Tribe (TV-Size).wav

Pre-gap length 0:00:02.00

Peak level 98.8 % Extraction speed 0.8 X Track quality 100.0 % Test CRC 78B611F4 Copy CRC 78B611F4 Cannot be verified as accurate (confidence 2) [C50C9DB5], AccurateRip returned [5A1619F9] (AR v2) Copy OK

Track 2

Filename G:\Temp\New rips\Initial D 4th Stage Music Complete Box [FLAC]\Disc 6\02 - Atsushi Umebori - Begining Of The Day.wav

Pre-gap length 0:00:02.40

Peak level 93.4 % Extraction speed 0.9 X Track quality 100.0 % Test CRC 62A1CC81 Copy CRC 62A1CC81 Cannot be verified as accurate (confidence 2) [3AFD871A], AccurateRip returned [11A84778] (AR v2) Copy OK

Track 3

Filename G:\Temp\New rips\Initial D 4th Stage Music Complete Box [FLAC]\Disc 6\03 - Daisuku Ogura - Wish.wav

Pre-gap length 0:00:01.40

Peak level 98.8 % Extraction speed 0.9 X Track quality 100.0 % Test CRC E2DED5C7 Copy CRC E2DED5C7 Cannot be verified as accurate (confidence 2) [986A5810], AccurateRip returned [E4C7F20F] (AR v2) Copy OK

Track 4

Filename G:\Temp\New rips\Initial D 4th Stage Music Complete Box [FLAC]\Disc 6\04 - Atsushi Umebori - Opponent.wav

Pre-gap length 0:00:01.40

Peak level 98.8 % Extraction speed 0.7 X Track quality 99.8 % Test CRC 9C7BBBF5 Copy CRC 9C7BBBF5 Cannot be verified as accurate (confidence 2) [237BBCB5], AccurateRip returned [AC479B16] (AR v2) Copy OK

Track 5

Filename G:\Temp\New rips\Initial D 4th Stage Music Complete Box [FLAC]\Disc 6\05 - Dennis Martin - Tea Break.wav

Pre-gap length 0:00:02.40

Peak level 98.8 % Extraction speed 1.2 X Track quality 100.0 % Test CRC 0BE6C167 Copy CRC 0BE6C167 Cannot be verified as accurate (confidence 2) [9FA96BC2], AccurateRip returned [EA02E685] (AR v2) Copy OK

Track 6

Filename G:\Temp\New rips\Initial D 4th Stage Music Complete Box [FLAC]\Disc 6\06 - Dennis Martin - Tension.wav

Pre-gap length 0:00:02.40

Peak level 98.8 % Extraction speed 1.0 X Track quality 100.0 % Test CRC 18227AE0 Copy CRC 18227AE0 Cannot be verified as accurate (confidence 2) [0BE23FF3], AccurateRip returned [F8FC2478] (AR v2) Copy OK

Track 7

Filename G:\Temp\New rips\Initial D 4th Stage Music Complete Box [FLAC]\Disc 6\07 - Atsushi Umebori - Subtitle I.wav

Pre-gap length 0:00:01.40

Peak level 98.8 % Extraction speed 0.2 X Track quality 100.0 % Test CRC 2EA31533 Copy CRC 2EA31533 Cannot be verified as accurate (confidence 2) [891C4683], AccurateRip returned [F46C73BF] (AR v2) Copy OK

Track 8

Filename G:\Temp\New rips\Initial D 4th Stage Music Complete Box [FLAC]\Disc 6\08 - Atsushi Umebori - Happy Everyday.wav

Pre-gap length 0:00:01.40

Peak level 98.8 % Extraction speed 1.0 X Track quality 100.0 % Test CRC 29BAAAEB Copy CRC 29BAAAEB Cannot be verified as accurate (confidence 2) [75A9B838], AccurateRip returned [CEACB5EB] (AR v2) Copy OK

Track 9

Filename G:\Temp\New rips\Initial D 4th Stage Music Complete Box [FLAC]\Disc 6\09 - Dennis Martin - Natsuki's Theme.wav

Pre-gap length 0:00:01.40

Peak level 98.8 % Extraction speed 0.9 X Track quality 99.8 % Test CRC D45B6343 Copy CRC D45B6343 Cannot be verified as accurate (confidence 2) [17172FF2], AccurateRip returned [616C56F5] (AR v2) Copy OK

Track 10

Filename G:\Temp\New rips\Initial D 4th Stage Music Complete Box [FLAC]\Disc 6\10 - Atsushi Umebori - Impreza II.wav

Pre-gap length 0:00:02.40

Peak level 98.8 % Extraction speed 1.3 X Track quality 100.0 % Test CRC AF85F6E3 Copy CRC AF85F6E3 Cannot be verified as accurate (confidence 2) [65D49847], AccurateRip returned [E5AFC1DF] (AR v2) Copy OK

Track 11

Filename G:\Temp\New rips\Initial D 4th Stage Music Complete Box [FLAC]\Disc 6\11 - Atsushi Umebori - Riddle.wav

Pre-gap length 0:00:01.40

Peak level 98.8 % Extraction speed 1.3 X Track quality 100.0 % Test CRC 0710B9B6 Copy CRC 0710B9B6 Cannot be verified as accurate (confidence 2) [4AE3228E], AccurateRip returned [9C4455EB] (AR v2) Copy OK

Track 12

Filename G:\Temp\New rips\Initial D 4th Stage Music Complete Box [FLAC]\Disc 6\12 - Dennis Martin - Loser.wav

Pre-gap length 0:00:01.40

Peak level 98.8 % Extraction speed 1.2 X Track quality 100.0 % Test CRC E6BD09E3 Copy CRC E6BD09E3 Cannot be verified as accurate (confidence 2) [CE1A6F1A], AccurateRip returned [497028D8] (AR v2) Copy OK

Track 13

Filename G:\Temp\New rips\Initial D 4th Stage Music Complete Box [FLAC]\Disc 6\13 - Atsushi Umebori - Eye-Catch IV.wav

Pre-gap length 0:00:01.40

Peak level 98.8 % Extraction speed 0.1 X Track quality 98.7 % Test CRC 1A7F45D1 Copy CRC 1A7F45D1 Cannot be verified as accurate (confidence 2) [CF89FD34], AccurateRip returned [65413FF0] (AR v2) Copy OK

Track 14

Filename G:\Temp\New rips\Initial D 4th Stage Music Complete Box [FLAC]\Disc 6\14 - Dennis Martin - Anxious.wav

Pre-gap length 0:00:01.40

Peak level 97.2 % Extraction speed 1.1 X Track quality 100.0 % Test CRC 4BF470A2 Copy CRC 4BF470A2 Cannot be verified as accurate (confidence 2) [1A3EFC83], AccurateRip returned [A44A1875] (AR v2) Copy OK

Track 15

Filename G:\Temp\New rips\Initial D 4th Stage Music Complete Box [FLAC]\Disc 6\15 - Atsushi Umebori - Theme Of AE86 -Being-.wav

Pre-gap length 0:00:01.40

Peak level 98.8 % Extraction speed 1.3 X Track quality 100.0 % Test CRC 7B94CE34 Copy CRC 7B94CE34 Cannot be verified as accurate (confidence 2) [3B20AC94], AccurateRip returned [C58FD6C9] (AR v2) Copy OK

Track 16

Filename G:\Temp\New rips\Initial D 4th Stage Music Complete Box [FLAC]\Disc 6\16 - Dennis Martin - Cappuccino II.wav

Pre-gap length 0:00:01.40

Peak level 98.8 % Extraction speed 1.4 X Track quality 100.0 % Test CRC E5B2F57D Copy CRC E5B2F57D Cannot be verified as accurate (confidence 2) [40CEF971], AccurateRip returned [DAF1AEF5] (AR v2) Copy OK

Track 17

Filename G:\Temp\New rips\Initial D 4th Stage Music Complete Box [FLAC]\Disc 6\17 - Dennis Martin - Action.wav

Pre-gap length 0:00:01.90

Peak level 98.8 % Extraction speed 1.4 X Track quality 100.0 % Test CRC B0D6C3B7 Copy CRC B0D6C3B7 Cannot be verified as accurate (confidence 2) [0D76D634], AccurateRip returned [9803675C] (AR v2) Copy OK

Track 18

Filename G:\Temp\New rips\Initial D 4th Stage Music Complete Box [FLAC]\Disc 6\18 - Kanako Ito - In Love I.wav

Pre-gap length 0:00:01.40

Peak level 88.9 % Extraction speed 1.3 X Track quality 100.0 % Test CRC 9A57DCA2 Copy CRC 9A57DCA2 Cannot be verified as accurate (confidence 2) [65EAD32C], AccurateRip returned [D3EAE5AD] (AR v2) Copy OK

Track 19

Filename G:\Temp\New rips\Initial D 4th Stage Music Complete Box [FLAC]\Disc 6\19 - Dennis Martin - Subtitle II.wav

Pre-gap length 0:00:02.40

Peak level 98.8 % Extraction speed 0.3 X Track quality 100.0 % Test CRC FB381B6E Copy CRC FB381B6E Track not present in AccurateRip database Copy OK

Track 20

Filename G:\Temp\New rips\Initial D 4th Stage Music Complete Box [FLAC]\Disc 6\20 - Atsushi Umebori - Ibushigin.wav

Peak level 98.8 % Extraction speed 1.5 X Track quality 100.0 % Test CRC 56AB97D3 Copy CRC 56AB97D3 Cannot be verified as accurate (confidence 2) [37C77AAE], AccurateRip returned [3DC4C7FB] (AR v2) Copy OK

Track 21

Filename G:\Temp\New rips\Initial D 4th Stage Music Complete Box [FLAC]\Disc 6\21 - Atsushi Umebori - Todo-Juku II.wav

Pre-gap length 0:00:02.40

Peak level 98.8 % Extraction speed 1.5 X Track quality 100.0 % Test CRC C2211F88 Copy CRC C2211F88 Cannot be verified as accurate (confidence 2) [632A4BE0], AccurateRip returned [E92A9EDB] (AR v2) Copy OK

Track 22

Filename G:\Temp\New rips\Initial D 4th Stage Music Complete Box [FLAC]\Disc 6\22 - Dennis Martin - United II.wav

Pre-gap length 0:00:01.40

Peak level 98.8 % Extraction speed 1.6 X Track quality 100.0 % Test CRC 307FC88C Copy CRC 307FC88C Cannot be verified as accurate (confidence 2) [7D34EEFC], AccurateRip returned [BF34887B] (AR v2) Copy OK

Track 23

Filename G:\Temp\New rips\Initial D 4th Stage Music Complete Box [FLAC]\Disc 6\23 - Atsushi Umebori - Feelings.wav

Pre-gap length 0:00:01.40

Peak level 98.8 % Extraction speed 1.6 X Track quality 100.0 % Test CRC 8C4F4654 Copy CRC 8C4F4654 Cannot be verified as accurate (confidence 2) [1866AAED], AccurateRip returned [5F93E3CA] (AR v2) Copy OK

Track 24

Filename G:\Temp\New rips\Initial D 4th Stage Music Complete Box [FLAC]\Disc 6\24 - Daisuku Ogura - In Love II.wav

Pre-gap length 0:00:02.40

Peak level 96.2 % Extraction speed 1.5 X Track quality 100.0 % Test CRC DBCC25FC Copy CRC DBCC25FC Cannot be verified as accurate (confidence 2) [4B661391], AccurateRip returned [6412EA3D] (AR v2) Copy OK

Track 25

Filename G:\Temp\New rips\Initial D 4th Stage Music Complete Box [FLAC]\Disc 6\25 - Dennis Martin - Evening Glow.wav

Pre-gap length 0:00:02.40

Peak level 91.2 % Extraction speed 1.7 X Track quality 100.0 % Test CRC 33FA566D Copy CRC 33FA566D Cannot be verified as accurate (confidence 2) [B6BF31D0], AccurateRip returned [D84586D4] (AR v2) Copy OK

Track 26

Filename G:\Temp\New rips\Initial D 4th Stage Music Complete Box [FLAC]\Disc 6\26 - Atsushi Umebori - Subtitle III.wav

Pre-gap length 0:00:02.40

Peak level 98.8 % Extraction speed 0.4 X Track quality 100.0 % Test CRC 29DD9062 Copy CRC 29DD9062 Cannot be verified as accurate (confidence 2) [4C94276F], AccurateRip returned [73B0449E] (AR v2) Copy OK

Track 27

Filename G:\Temp\New rips\Initial D 4th Stage Music Complete Box [FLAC]\Disc 6\27 - M.o.v.e - Nobody Reason 〜 ノアの方舟 (TV-Size).wav

Peak level 98.8 % Extraction speed 1.7 X Track quality 100.0 % Test CRC 6AC69F91 Copy CRC 6AC69F91 Cannot be verified as accurate (confidence 2) [F47EE141], AccurateRip returned [B4EFDCA6] (AR v2) Copy OK

26 track(s) could not be verified as accurate 1 track(s) not present in the AccurateRip database

No tracks could be verified as accurateYou may have a different pressing from the one(s) in the database

No errors occurred

End of status report

==== Log checksum FCBABCA7A59D38352CE62EB041D72F065092460D291D0BB8B92671F281DEC8A5 ====
REM GENRE SoundtrackREM DATE 2007REM DISCID 50097A1BREM COMMENT "ExactAudioCopy v1.0b3"PERFORMER "Various Artists"TITLE "Initial D Fourth Stage Music Complete Box"FILE "01. m.o.v.e - Noizy Tribe (TV-Size).wav" WAVE TRACK 01 AUDIO TITLE "Noizy Tribe (TV-Size)" PERFORMER "m.o.v.e" ISRC JPB600561401 INDEX 01 00:00:00 TRACK 02 AUDIO TITLE "Begining Of The Day" PERFORMER "Atsushi Umebori" ISRC JPB600561402 INDEX 00 01:30:70FILE "02. Begining Of The Day.wav" WAVE INDEX 01 00:00:00 TRACK 03 AUDIO TITLE "Wish" PERFORMER "Daisuku Ogura" ISRC JPB600561403 INDEX 00 01:24:27FILE "03. Wish.wav" WAVE INDEX 01 00:00:00 TRACK 04 AUDIO TITLE "Opponent" PERFORMER "Atsushi Umebori" ISRC JPB600561404 INDEX 00 01:21:55FILE "04. Opponent.wav" WAVE INDEX 01 00:00:00 TRACK 05 AUDIO TITLE "Tea Break" PERFORMER "Dennis Martin" ISRC JPB600561405 INDEX 00 01:31:13FILE "05. Tea Break.wav" WAVE INDEX 01 00:00:00 TRACK 06 AUDIO TITLE "Tension" PERFORMER "Dennis Martin" ISRC JPB600561406 INDEX 00 02:42:15FILE "06. Tension.wav" WAVE INDEX 01 00:00:00 TRACK 07 AUDIO TITLE "Subtitle I" PERFORMER "Atsushi Umebori" ISRC JPB600561407 INDEX 00 01:16:37FILE "07. Subtitle I.wav" WAVE INDEX 01 00:00:00 TRACK 08 AUDIO TITLE "Happy Everyday" PERFORMER "Atsushi Umebori" ISRC JPB600561408 INDEX 00 00:06:53FILE "08. Happy Everyday.wav" WAVE INDEX 01 00:00:00 TRACK 09 AUDIO TITLE "Natsuki's Theme" PERFORMER "Dennis Martin" ISRC JPB600561409 INDEX 00 01:20:32FILE "09. Natsuki's Theme.wav" WAVE INDEX 01 00:00:00 TRACK 10 AUDIO TITLE "Impreza II" PERFORMER "Atsushi Umebori" ISRC JPB600561410 INDEX 00 01:31:13FILE "10. Impreza II.wav" WAVE INDEX 01 00:00:00 TRACK 11 AUDIO TITLE "Riddle" PERFORMER "Atsushi Umebori" ISRC JPB600561411 INDEX 00 02:09:52FILE "11. Riddle.wav" WAVE INDEX 01 00:00:00 TRACK 12 AUDIO TITLE "Loser" PERFORMER "Dennis Martin" ISRC JPB600561412 INDEX 00 02:14:18FILE "12. Loser.wav" WAVE INDEX 01 00:00:00 TRACK 13 AUDIO TITLE "Eye-Catch IV" PERFORMER "Atsushi Umebori" ISRC JPB600561413 INDEX 00 01:15:60FILE "13. Eye-Catch IV.wav" WAVE INDEX 01 00:00:00 TRACK 14 AUDIO TITLE "Anxious" PERFORMER "Dennis Martin" ISRC JPB600561414 INDEX 00 00:07:15FILE "14. Anxious.wav" WAVE INDEX 01 00:00:00 TRACK 15 AUDIO TITLE "Theme Of AE86 -Being-" PERFORMER "Atsushi Umebori" ISRC JPB600561415 INDEX 00 01:06:60FILE "15. Theme Of AE86 -Being-.wav" WAVE INDEX 01 00:00:00 TRACK 16 AUDIO TITLE "Cappuccino II" PERFORMER "Dennis Martin" ISRC JPB600561416 INDEX 00 01:45:52FILE "16. Cappuccino II.wav" WAVE INDEX 01 00:00:00 TRACK 17 AUDIO TITLE "Action" PERFORMER "Dennis Martin" ISRC JPB600561417 INDEX 00 01:48:35FILE "17. Action.wav" WAVE INDEX 01 00:00:00 TRACK 18 AUDIO TITLE "In Love I" PERFORMER "Kanako Ito" ISRC JPB600561418 INDEX 00 01:53:05FILE "18. In Love I.wav" WAVE INDEX 01 00:00:00 TRACK 19 AUDIO TITLE "Subtitle II" PERFORMER "Dennis Martin" ISRC JPB600561419 INDEX 00 01:23:02FILE "19. Subtitle II.wav" WAVE INDEX 01 00:00:00FILE "20. Ibushigin.wav" WAVE TRACK 20 AUDIO TITLE "Ibushigin" PERFORMER "Atsushi Umebori" ISRC JPB600561420 INDEX 01 00:00:00 TRACK 21 AUDIO TITLE "Todo-Juku II" PERFORMER "Atsushi Umebori" ISRC JPB600561421 INDEX 00 01:52:53FILE "21. Todo-Juku II.wav" WAVE INDEX 01 00:00:00 TRACK 22 AUDIO TITLE "United II" PERFORMER "Dennis Martin" ISRC JPB600561422 INDEX 00 01:37:10FILE "22. United II.wav" WAVE INDEX 01 00:00:00 TRACK 23 AUDIO TITLE "Feelings" PERFORMER "Atsushi Umebori" ISRC JPB600561423 INDEX 00 02:07:45FILE "23. Feelings.wav" WAVE INDEX 01 00:00:00 TRACK 24 AUDIO TITLE "In Love II" PERFORMER "Daisuku Ogura" ISRC JPB600561424 INDEX 00 01:52:47FILE "24. In Love II.wav" WAVE INDEX 01 00:00:00 TRACK 25 AUDIO TITLE "Evening Glow" PERFORMER "Dennis Martin" ISRC JPB600561425 INDEX 00 01:24:50FILE "25. Evening Glow.wav" WAVE INDEX 01 00:00:00 TRACK 26 AUDIO TITLE "Subtitle III" PERFORMER "Atsushi Umebori" ISRC JPB600561426 INDEX 00 02:00:45FILE "26. Subtitle III.wav" WAVE INDEX 01 00:00:00FILE "27. m.o.v.e - Nobody Reason (TV-Size).wav" WAVE TRACK 27 AUDIO TITLE "Nobody Reason (TV-Size)" PERFORMER "m.o.v.e" ISRC JPB600561427 INDEX 01 00:00:00
-----------------------

DON'T MODIFY THIS FILE

-----------------------

PERFORMER: auCDtect Task Manager, ver. 1.6.0 RC1 build 1.6.0.1Copyright (c) 2008-2010 y-soft. All rights reservedhttp://y-soft.org

ANALYZER: auCDtect: CD records authenticity detector, version 0.8.2Copyright (c) 2004 Oleg Berngardt. All rights reserved.Copyright (c) 2004 Alexander Djourik. All rights reserved.

FILE: 01. m.o.v.e - Noizy Tribe (TV-Size).flac Size: 12581161 Hash: 92FB7792E425F04BF7CD51CC2011EBF6 Accuracy: -m0 Conclusion: CDDA 100% Signature: A24E5F1E5EDB65F1A0F23A9980148AE500E4928CFILE: 02. Begining of The Day.flac Size: 9679643 Hash: FD3948C6B5B89BE49E09C7541CA94C07 Accuracy: -m0 Conclusion: CDDA 99% Signature: C7F75FAAA88D61FA8B6E48C3192854786B8BF34BFILE: 03. Wish.flac Size: 8200453 Hash: ABE29A1F89B439FA88E72227448F57B9 Accuracy: -m0 Conclusion: CDDA 99% Signature: B5BA42674D9192B3EFB9897269B9EAB49DB882FCFILE: 04. Opponent.flac Size: 7978433 Hash: 7F0FFC903A284692267F812AADBDF519 Accuracy: -m0 Conclusion: CDDA 100% Signature: C4EA20E1EB56301CAE85A5C7D857AD48F5B4FF59FILE: 05. Tea Break.flac Size: 15776688 Hash: 4121A49269ACE4FC20526808AF820481 Accuracy: -m0 Conclusion: CDDA 100% Signature: 7B28A6CE48896B12A7D2825E1302D4E442C37121FILE: 06. Tension.flac Size: 8182000 Hash: 197B7BE1E2B9D0DC842347F7B3F4D821 Accuracy: -m0 Conclusion: CDDA 100% Signature: A3D4C3EE62EA8087672619AFCA5B10CD6D0320CDFILE: 07. Subtitle I.flac Size: 734437 Hash: 765F20248ED4AF86DAAF763C035BCCF1 Accuracy: -m0 Conclusion: CDDA 100% Signature: 8EC96B7285032FAE9CFF3263A4F56EC332ACCCD2FILE: 08. Happy Everyday.flac Size: 9047993 Hash: 48DAC4E8EDAF303D30BBDF1B0F835F01 Accuracy: -m0 Conclusion: CDDA 100% Signature: 7D0FE5CB139B905E735EA69BC562851A602DFDF8FILE: 09. Natsuki's Theme.flac Size: 7421176 Hash: 2020F54D74EEC317CB9C019968F7603E Accuracy: -m0 Conclusion: CDDA 99% Signature: 10A3031D57360C40648A287ED4C965DC82E6EA3DFILE: 10. Impreza II.flac Size: 12997347 Hash: 02AA4008091427FF977C0027BF4A7217 Accuracy: -m0 Conclusion: CDDA 99% Signature: E4B2BBC96013FA4122BE16B0DB77549EF371D874FILE: 11. Riddle.flac Size: 14207823 Hash: 714E85CE1C15E0FCF9BCFC3482CCEB17 Accuracy: -m0 Conclusion: CDDA 100% Signature: 7A1E4BD8C540D2BFD017E1D7C19B4FCF78384426FILE: 12. Loser.flac Size: 6492336 Hash: 456FF98F1975FD71A6BAADFA76B4E8F3 Accuracy: -m0 Conclusion: CDDA 100% Signature: C3E4675B399BF6E4BB87CD1F4FDC86DE3304040EFILE: 13. Eye-Catch IV.flac Size: 739822 Hash: 3B9D90D21C07DF5EA4B8F0C5EC0802EE Accuracy: -m0 Conclusion: CDDA 100% Signature: FCAEC876B840DA21CC0C916D871FFCFEE0BD2A5EFILE: 14. Anxious.flac Size: 3867387 Hash: 0F3A93EEEBC2EC79933EADD087A9451A Accuracy: -m0 Conclusion: CDDA 100% Signature: F0AE9A3E7962CCB9F80CE51BD3C5593C1927E423FILE: 15. Theme of AE86 -Being-.flac Size: 10262252 Hash: F97CAA93CAD6CA3FD1903FB74C7D733A Accuracy: -m0 Conclusion: CDDA 100% Signature: 30C08E7D85A6E464E8A6167989319DB901330735FILE: 16. Cappuccino II.flac Size: 11376960 Hash: 1A544E3668146AB7EBC3B912A0C8B821 Accuracy: -m0 Conclusion: CDDA 100% Signature: F7E1E2644D582DE5F7C7EB7DC4C1D78F631A5071FILE: 17. Action.flac Size: 13892417 Hash: 3161B2FF8B74579896EDE68A1752C4B4 Accuracy: -m0 Conclusion: CDDA 100% Signature: 1AEA35F123F1ABA6CFE4F8BDF5FB0F2918C2DABDFILE: 18. In Love I.flac Size: 8343929 Hash: 98E0AF53629E7AE4333E9A82A66BCB06 Accuracy: -m0 Conclusion: CDDA 100% Signature: 6E0C9EFC06DE8249344CA0530AC47128C4B81101FILE: 19. Subtitle II.flac Size: 654162 Hash: 437152659A16818405B46F4C4F8D5BF5 Accuracy: -m0 Conclusion: CDDA 99% Signature: BC622069132FE0564E402BBFD8F08AFF2EB06314FILE: 20. Ibushigin.flac Size: 12345771 Hash: 759DF499D2544834826E133FB9D94A73 Accuracy: -m0 Conclusion: CDDA 100% Signature: 466C4A3FA34FB300B539EB56E60D3586A0246E3EFILE: 21. Todo-Juku II.flac Size: 7800886 Hash: BF65B22695D971037133F5F2E7BE4ADE Accuracy: -m0 Conclusion: CDDA 100% Signature: 37BBFA05E0F50646DCB6C30DD32C3B5EC209C563FILE: 22. United II.flac Size: 13156918 Hash: 88E955522FACB2C3258B7C53F99F8281 Accuracy: -m0 Conclusion: CDDA 100% Signature: 50409D346F0DAA15BD8ACBC59CA51B4DA9BF023FFILE: 23. Feelings.flac Size: 10106855 Hash: 867D18A6FCFAB0C9A4DBD914FFFD376C Accuracy: -m0 Conclusion: CDDA 99% Signature: 8D594F1111EAECA51C0D8F3F34EB8F5D0DCC31B8FILE: 24. In Love II.flac Size: 9040500 Hash: 1318978A562A8C409D5264F14CDFC9F3 Accuracy: -m0 Conclusion: CDDA 100% Signature: 859AECDEF726237B6EC37AFB9789CDC4A7045B4BFILE: 25. Evening Glow.flac Size: 8421809 Hash: 43E3240F9074A198818361307200B2B1 Accuracy: -m0 Conclusion: CDDA 76% Signature: 5261DF66948BE73909C0205DCC5E8FCF109D2594FILE: 26. Subtitle III.flac Size: 939449 Hash: BD5DE753B1380F54B530679B866A0DA6 Accuracy: -m0 Conclusion: CDDA 100% Signature: C194257EEAAB830E754A95CBF8C959F7DE8A9BAEFILE: 27. m.o.v.e - Nobody Reason (TV-Size).flac Size: 15283542 Hash: BC84397968CCF9F1D560B12D446D64D2 Accuracy: -m0 Conclusion: CDDA 100% Signature: F50523C85BF1833546C96D432CF84476DAA482F2


Трекер:  [ 27-Янв-2015 20:30 ]

  

Скачать .torrent

Размер .torrent файла 26 KB


Размер: 2.62 GB
Хэш (hash) релиза: 03f7eb5a7a288009220f10a7744c6412b99a195f

Еще никто не оставлял запись к записи скачать торрент Initial D Fourth Stage Music Complete Box, 2007, FLAC . Будь первым!

!Обратная связь