8 Ready Player One (2018)
vol.4 ch.31

Скачать через торрент [VIDEO] Смешанные чувства бесплатно русская версия torrent активатор

Статистика раздачи
Размер:  979 MB   |    Зарегистрирован:  3 года 2 месяца   |    .torrent скачан:  49 раз   |   
Раздают:  1  
   
загрузка...
 
Автор Сообщение

Galfimbul

avatar Galfimbul


Смешанные чувства
Год выпуска: 2014
Страна: Россия (Enjoy Movies)
Жанр: Комедия
Продолжительность: 01:24:26
Перевод: Не требуется
Режиссер: Георгий Малков
В ролях: Александр Ревва, Павел Деревянко, Татьяна Космачёва, Артем Сучков, Максим Коновалов, Эмиль Никогосян, Вадим Цаллати, Мария Сёмкина, Александр Булатов, Раиса Рязанова
Описание: Они настолько разные, что не должны были пересечься в обычной жизни. Фил — бывшая звезда 90-х, прославившийся в свое время одной единственной песней. Теперь он работает ди-джеем, завидует Олегу Газманову и не выносит ответственности. Петр — врач-карьерист, сухарь и педант. Записывает на диктофон свои планы на день, боится пригласить девушку на свидание и знать не знает кто такой Газманов. После электрошока они начинают испытывать чувства друг друга. Когда одному больно, то от боли вздрагивает и другой, когда одному из них страшно, то пугается и второй. Смеется один, непроизвольный смех у другого. Веселая жизнь и острые эмоции Фила рушат сначала системную размеренную работу Пети, а затем появляется проблема посерьезнее, когда вслед за Петей в его девушку влюбляется и Фил.

Качество: WEB-DLRip (Рип с WEB-DL 1080p)
Формат: MP4
Видео: AVC, 960x536 (16:9), 1474 kbps, 25.000 fps
Аудио: Русский, AAC, 2 ch, 48 kHz, 128 kbps [Original]
x264 [info]: frame I:1404 Avg QP:16.95 size: 65342
x264 [info]: frame P:34537 Avg QP:20.79 size: 15452
x264 [info]: frame B:91526 Avg QP:24.80 size: 3432

x264 [total]: encoded 127467 frames, 3.69 fps, 1474.06 kb/s
General
Complete name : [VIDEO] Smeshannye.Chuvstva.2014.WEB-DLRip.x264.960x(semen_52-TNC).mp4
Format : MPEG-4
Format profile : Base Media
Codec ID : isom
File size : 979 MiB
Duration : 1h 24mn
Overall bit rate mode : Variable
Overall bit rate : 1 610 Kbps
Movie name : [VIDEO] Smeshannye Chuvstva 2014 WEB-DLRip x264 960x(semen_52-TNC)
ContentType : Short Film
Encoded date : UTC 2015-01-21 18:01:47
Tagged date : UTC 2015-01-21 18:03:21
Writing application : MkvToMp4 version: 0.224 (x64)
Comment : Rip by semen_52-TNC

Video
ID : 1
Format : AVC
Format/Info : Advanced Video Codec
Format profile : [email protected]
Format settings, CABAC : Yes
Format settings, ReFrames : 8 frames
Codec ID : avc1
Codec ID/Info : Advanced Video Coding
Duration : 1h 24mn
Bit rate : 1 474 Kbps
Maximum bit rate : 7 795 Kbps
Width : 960 pixels
Height : 536 pixels
Display aspect ratio : 16:9
Frame rate mode : Constant
Frame rate : 25.000 fps
Color space : YUV
Chroma subsampling : 4:2:0
Bit depth : 8 bits
Scan type : Progressive
Bits/(Pixel*Frame) : 0.115
Stream size : 896 MiB (92%)
Writing library : x264 core 130 r2273 b3065e6
Encoding settings : cabac=1 / ref=8 / deblock=1:-3:-3 / analyse=0x3:0x133 / me=esa / subme=9 / psy=1 / psy_rd=1.00:0.15 / mixed_ref=1 / me_range=32 / chroma_me=1 / trellis=2 / 8x8dct=1 / cqm=0 / deadzone=21,11 / fast_pskip=0 / chroma_qp_offset=-3 / threads=12 / lookahead_threads=2 / sliced_threads=0 / nr=0 / decimate=1 / interlaced=0 / bluray_compat=0 / constrained_intra=0 / bframes=8 / b_pyramid=2 / b_adapt=2 / b_bias=0 / direct=1 / weightb=1 / open_gop=0 / weightp=2 / keyint=250 / keyint_min=25 / scenecut=40 / intra_refresh=0 / rc_lookahead=60 / rc=crf / mbtree=1 / crf=20.5 / qcomp=0.60 / qpmin=0 / qpmax=69 / qpstep=4 / ip_ratio=1.40 / aq=1:0.90
Language : English
Encoded date : UTC 2015-01-21 18:01:47
Tagged date : UTC 2015-01-21 18:02:16

Audio
ID : 2
Format : AAC
Format/Info : Advanced Audio Codec
Format profile : LC
Codec ID : 40
Duration : 1h 24mn
Bit rate mode : Variable
Bit rate : 128 Kbps
Maximum bit rate : 134 Kbps
Channel(s) : 2 channels
Channel positions : Front: L R
Sampling rate : 48.0 KHz
Compression mode : Lossy
Stream size : 77.8 MiB (8%)
Title : Original
Language : Russian
Encoded date : UTC 2015-01-21 18:01:59
Tagged date : UTC 2015-01-21 18:02:16


Трекер:  [ 22-Янв-2015 00:00 ]

  

Скачать .torrent

Размер .torrent файла 19 KB


Размер: 979 MB
Хэш (hash) релиза: 9346648ff5e0ccdec7148216e3a7ada0a241e694

Еще никто не оставлял запись к записи скачать торрент [VIDEO] Смешанные чувства . Будь первым!

!Обратная связь