Beautiful Music Teacher - Tearful Pure Nakdashi Gang Rape (Nana Natsume) / Групповое изнасилование красивой учительницы музыки [SDDM-750] (SOD Create/Soft Demand (SOD)) [cen] [2009 г., RAPE, DVDRip] | 4 K Сотня 5x6 | Voice Subtitle

Скачать через торрент [VIDEO] Ровер The Rover бесплатно русская версия torrent активатор

Статистика раздачи
Размер:  876 MB   |    Зарегистрирован:  3 года 6 месяцев   |    .torrent скачан:  35 раз   |   
Раздают:  1  
   
загрузка...
 
Автор Сообщение

Galfimbul

avatar Galfimbul


Ровер
The Rover

Год выпуска: 2014
Страна: Австралия, США (Porchlight Films, Lava Bear Films, Blue-Tongue Films)
Жанр: Драма, криминал
Продолжительность: 01:42:52
Перевод: Профессиональный (многоголосый закадровый)
Оригинальная дорожка: Английский
Cубтитры: Русские полные, отключаемые
Режиссер: Дэвид Мишо / David Michôd
В ролях: Гай Пирс, Чан Кьень, Роберт Паттинсон, Тек Конг Лим, Скут МакНэйри, Таванда Маниймо, Дэвид Филд, Скотт Перри, Ричард Грин, Бен Армер
Описание: Главный герой преследует по дикой австралийской природе банду, угнавшую его автомобиль, и оказывается в ловушке. Современный вестерн в постапокалиптическом сеттинге, где есть преступление, и есть наказание, которое главный герой желает обрушить на головы своих обидчиков. И высшая философия, четко прописанная мотивация… какое это имеет значение в месте, где пистолет — это Бог и единственное, что он может даровать — это смерть.

Качество: HDRip (Рип с BDRip 1080p)
Формат: MP4
Видео: AVC, 960x400 (2.40:1), 924 kbps, 24.000 fps
Аудио 1: Русский, AAC, 2 ch, 48 kHz, 128 kbps [MVO]
Аудио 2: Английский, AAC, 2 ch, 48 kHz, 128 kbps [Original]

Режиссер и сценарист фильма Дэвид Мишо изначально писал персонаж Эрика специально под Гая Пирса.
x264 [info]: frame I:863 Avg QP:14.33 size: 57244
x264 [info]: frame P:28138 Avg QP:17.45 size: 13484
x264 [info]: frame B:119002 Avg QP:20.48 size: 2388

x264 [total]: encoded 148003 frames, 10.18 fps, 924.05 kb/s
General
Complete name : [VIDEO] The.Rover.2014.HDRip.x264.960x(semen_52-TNC).mp4
Format : MPEG-4
Format profile : Base Media
Codec ID : isom
File size : 876 MiB
Duration : 1h 42mn
Overall bit rate mode : Variable
Overall bit rate : 1 191 Kbps
Movie name : [VIDEO] The Rover 2014 HDRip x264 960x(semen_52-TNC)
ContentType : Short Film
Encoded date : UTC 2014-12-14 19:42:31
Tagged date : UTC 2014-12-14 19:43:29
Writing application : MkvToMp4 version: 0.224 (x64)
Comment : Rip by semen_52-TNC

Video
ID : 1
Format : AVC
Format/Info : Advanced Video Codec
Format profile : [email protected]
Format settings, CABAC : Yes
Format settings, ReFrames : 8 frames
Codec ID : avc1
Codec ID/Info : Advanced Video Coding
Duration : 1h 42mn
Bit rate : 924 Kbps
Maximum bit rate : 6 132 Kbps
Width : 960 pixels
Height : 400 pixels
Display aspect ratio : 2.40:1
Frame rate mode : Constant
Frame rate : 23.976 fps
Color space : YUV
Chroma subsampling : 4:2:0
Bit depth : 8 bits
Scan type : Progressive
Bits/(Pixel*Frame) : 0.100
Stream size : 680 MiB (78%)
Writing library : x264 core 130 r2273 b3065e6
Encoding settings : cabac=1 / ref=8 / deblock=1:-2:-1 / analyse=0x3:0x133 / me=esa / subme=9 / psy=1 / psy_rd=1.00:0.15 / mixed_ref=1 / me_range=32 / chroma_me=1 / trellis=2 / 8x8dct=1 / cqm=0 / deadzone=21,11 / fast_pskip=0 / chroma_qp_offset=-3 / threads=12 / lookahead_threads=2 / sliced_threads=0 / nr=0 / decimate=1 / interlaced=0 / bluray_compat=0 / constrained_intra=0 / bframes=9 / b_pyramid=2 / b_adapt=2 / b_bias=0 / direct=1 / weightb=1 / open_gop=0 / weightp=2 / keyint=250 / keyint_min=25 / scenecut=40 / intra_refresh=0 / rc_lookahead=60 / rc=crf / mbtree=1 / crf=19.0 / qcomp=0.60 / qpmin=0 / qpmax=69 / qpstep=4 / ip_ratio=1.40 / aq=1:1.00
Language : English
Encoded date : UTC 2014-12-14 19:42:31
Tagged date : UTC 2014-12-14 19:42:53

Audio #1
ID : 2
Format : AAC
Format/Info : Advanced Audio Codec
Format profile : LC
Codec ID : 40
Duration : 1h 42mn
Bit rate mode : Variable
Bit rate : 128 Kbps
Maximum bit rate : 135 Kbps
Channel(s) : 2 channels
Channel positions : Front: L R
Sampling rate : 48.0 KHz
Compression mode : Lossy
Stream size : 94.2 MiB (11%)
Title : MVO
Language : Russian
Encoded date : UTC 2014-12-14 19:42:43
Tagged date : UTC 2014-12-14 19:42:53

Audio #2
ID : 3
Format : AAC
Format/Info : Advanced Audio Codec
Format profile : LC
Codec ID : 40
Duration : 1h 42mn
Bit rate mode : Variable
Bit rate : 128 Kbps
Maximum bit rate : 135 Kbps
Channel(s) : 2 channels
Channel positions : Front: L R
Sampling rate : 48.0 KHz
Compression mode : Lossy
Stream size : 94.2 MiB (11%)
Title : Original
Language : English
Encoded date : UTC 2014-12-14 19:42:48
Tagged date : UTC 2014-12-14 19:42:53

Text
ID : 4
Format : Timed Text
Muxing mode : sbtl
Codec ID : tx3g
Duration : 1h 31mn
Bit rate mode : Variable
Bit rate : 42 bps
Stream size : 28.0 KiB (0%)
Title : Full
Language : Russian
Encoded date : UTC 2014-12-14 19:42:53
Tagged date : UTC 2014-12-14 19:42:53


Трекер:  [ 21-Янв-2015 23:30 ]

  

Скачать .torrent

Размер .torrent файла 17 KB


Размер: 876 MB
Хэш (hash) релиза: 6a55b6931cc372a8b7edd16d5238122b72956692

Еще никто не оставлял запись к записи скачать торрент [VIDEO] Ровер The Rover . Будь первым!

!Обратная связь