A Dark Knight: One of My Three Soups
5.8 Lara Croft: Tomb Raider (2001)

Скачать через торрент [VIDEO] Добро пожаловать в капкан Welcome to the Punch бесплатно русская версия torrent активатор

Статистика раздачи
Размер:  854 MB   |    Зарегистрирован:  3 года 3 месяца   |    .torrent скачан:  37 раз   |   
Раздают:  1  
   
загрузка...
 
Автор Сообщение

Galfimbul

avatar Galfimbul


Добро пожаловать в капкан
Welcome to the Punch

Год выпуска: 2013
Страна: Великобритания, США (Automatik Entertainment, Between The Eyes, Scott Free Productions, Worldview Entertainment)
Жанр: Боевик, триллер, криминал, приключения
Продолжительность: 01:39:47
Перевод: Профессиональный (полное дублирование)
Оригинальная дорожка: Нет
Cубтитры: Нет
Режиссер: Эрен Криви / Eran Creevy
В ролях: Джеймс МакЭвой, Марк Стронг, Андреа Райзборо, Дэвид Моррисси, Питер Муллан, Джейсон Флеминг, Элиес Габел, Дэниэл Калуя, Дэниэл Мейс, Джонни Харрис
Описание: Бывший преступник Джейкоб Стернбуд вынужден вернуться в Лондон из своего убежища, когда его сын вовлечен в ограбление пошедшее не так. У детектива Макса Левински появляется шанс поймать человека, которому всегда удавалось уйти. Соперники снова меряются силами, но они сталкиваются с более глубоким преступным заговором, с которым вынуждены бороться, чтобы выжить.

Качество: HDRip (Рип с BDRip 1080p)
Формат: MP4
Видео: AVC, 960x400 (2.40:1), 1061 kbps, 23.976 fps
Аудио: Русский, AAC, 2 ch, 48 kHz, 128 kbps [Dub]
Когда Макс Левински выкачивает жидкость из колена с помощью шприца, он курит сигарету. Когда он заканчивает эту процедуру и бросает сигарету в кастрюлю с жидкостью, она выглядит длиннее, чем в предыдущем кадре.
x264 [info]: frame I:1202 Avg QP:15.12 size: 59587
x264 [info]: frame P:32483 Avg QP:19.39 size: 12785
x264 [info]: frame B:109871 Avg QP:21.27 size: 2795

x264 [total]: encoded 143556 frames, 3.41 fps, 1060.90 kb/s
General
Complete name : [VIDEO] Kapkan.2013.HDRip.x264.960x(semen_52-TNC).mp4
Format : MPEG-4
Format profile : Base Media
Codec ID : isom
File size : 854 MiB
Duration : 1h 39mn
Overall bit rate mode : Variable
Overall bit rate : 1 196 Kbps
Movie name : [VIDEO] Kapkan 2013 HDRip x264 960x(semen_52-TNC)
ContentType : Short Film
Encoded date : UTC 2015-01-21 15:16:37
Tagged date : UTC 2015-01-21 15:17:47
Writing application : MkvToMp4 version: 0.224 (x64)
Comment : Rip by semen_52-TNC

Video
ID : 1
Format : AVC
Format/Info : Advanced Video Codec
Format profile : [email protected]
Format settings, CABAC : Yes
Format settings, ReFrames : 8 frames
Codec ID : avc1
Codec ID/Info : Advanced Video Coding
Duration : 1h 39mn
Bit rate : 1 061 Kbps
Maximum bit rate : 6 001 Kbps
Width : 960 pixels
Height : 400 pixels
Display aspect ratio : 2.40:1
Frame rate mode : Constant
Frame rate : 23.976 fps
Color space : YUV
Chroma subsampling : 4:2:0
Bit depth : 8 bits
Scan type : Progressive
Bits/(Pixel*Frame) : 0.115
Stream size : 757 MiB (89%)
Writing library : x264 core 130 r2273 b3065e6
Encoding settings : cabac=1 / ref=8 / deblock=1:-3:-3 / analyse=0x3:0x133 / me=esa / subme=9 / psy=1 / psy_rd=0.95:0.15 / mixed_ref=1 / me_range=32 / chroma_me=1 / trellis=2 / 8x8dct=1 / cqm=0 / deadzone=21,11 / fast_pskip=0 / chroma_qp_offset=-3 / threads=12 / lookahead_threads=2 / sliced_threads=0 / nr=0 / decimate=1 / interlaced=0 / bluray_compat=0 / constrained_intra=0 / bframes=10 / b_pyramid=2 / b_adapt=2 / b_bias=0 / direct=1 / weightb=1 / open_gop=0 / weightp=2 / keyint=250 / keyint_min=25 / scenecut=40 / intra_refresh=0 / rc_lookahead=60 / rc=crf / mbtree=1 / crf=19.0 / qcomp=0.60 / qpmin=0 / qpmax=69 / qpstep=4 / ip_ratio=1.40 / aq=1:1.00
Language : English
Encoded date : UTC 2015-01-21 15:16:37
Tagged date : UTC 2015-01-21 15:16:55

Audio
ID : 2
Format : AAC
Format/Info : Advanced Audio Codec
Format profile : LC
Codec ID : 40
Duration : 1h 39mn
Bit rate mode : Variable
Bit rate : 128 Kbps
Maximum bit rate : 135 Kbps
Channel(s) : 2 channels
Channel positions : Front: L R
Sampling rate : 48.0 KHz
Compression mode : Lossy
Stream size : 91.4 MiB (11%)
Title : Dub
Language : Russian
Encoded date : UTC 2015-01-21 15:16:50
Tagged date : UTC 2015-01-21 15:16:55


Трекер:  [ 21-Янв-2015 23:00 ]

  

Скачать .torrent

Размер .torrent файла 17 KB


Размер: 854 MB
Хэш (hash) релиза: e408abf7a58ee46224067248454bde63cafec409

Еще никто не оставлял запись к записи скачать торрент [VIDEO] Добро пожаловать в капкан Welcome to the Punch . Будь первым!

!Обратная связь