[Zobacz cały opis] | Exodus season 02 episode 11 | Hijos del Tercer Reich

Скачать через торрент [VIDEO] Судная ночь 2 The Purge: Anarchy бесплатно русская версия torrent активатор

Статистика раздачи
Размер:  820 MB   |    Зарегистрирован:  3 года 6 месяцев   |    .torrent скачан:  51 раз   |   
Раздают:  1  
   
загрузка...
 
Автор Сообщение

Galfimbul

avatar Galfimbul


Судная ночь 2
The Purge: Anarchy

Год выпуска: 2014
Страна: США, Франция (Blumhouse Productions, Platinum Dunes, Universal Pictures, Why Not Productions)
Жанр: Триллер, криминал, боевик
Продолжительность: 01:43:34
Перевод: Профессиональный (полное дублирование)
Оригинальная дорожка: Нет
Cубтитры: Нет
Режиссер: Джеймс ДеМонако / James DeMonaco
В ролях: Фрэнк Грилло, Майкл К. Уильямс, Зак Гилфорд, Киле Санчез, Зои Борд, Кармен Эджого, Кортни Палм, Карла Хименез, Эдвин Ходж, Николас Гонсалес
Описание: Добро пожаловать в идеальный мир будущего — мир без преступности и войн. И только один раз в году роскошная спокойная жизнь сменяется анархией. Этой ночью все преступления законны. Поспешите домой — закат близок…

Качество: HDRip (Рип с BDRip 1080p)
Формат: MP4
Видео: AVC, 960x400 (2.40:1), 971 kbps, 23.976 fps
Аудио: Русский, AAC, 2 ch, 48 kHz, 128 kbps [Dub]
Имя сержанта — Лео Барнс. Большинство диалогов этого персонажа, рассказывающих его предысторию, были вырезаны на стадии пост-продакшна.
Зак Гилфорд и Киле Санчес сыграли супружескую пару. В реальной жизни они тоже состоят в браке.
x264 [info]: frame I:1162 Avg QP:16.49 size: 45308
x264 [info]: frame P:33999 Avg QP:20.01 size: 10316
x264 [info]: frame B:113843 Avg QP:22.22 size: 3082

x264 [total]: encoded 149004 frames, 9.10 fps, 970.84 kb/s
General
Complete name : [VIDEO] The.Purge.Anarchy.2014.HDRip.x264.960x(semen_52-TNC).mp4
Format : MPEG-4
Format profile : Base Media
Codec ID : isom
File size : 820 MiB
Duration : 1h 43mn
Overall bit rate mode : Variable
Overall bit rate : 1 107 Kbps
Movie name : [VIDEO] The Purge Anarchy 2014 HDRip x264 960x(semen_52-TNC)
ContentType : Short Film
Encoded date : UTC 2015-01-21 17:56:25
Tagged date : UTC 2015-01-21 17:57:10
Writing application : MkvToMp4 version: 0.224 (x64)
Comment : Rip by semen_52-TNC

Video
ID : 1
Format : AVC
Format/Info : Advanced Video Codec
Format profile : [email protected]
Format settings, CABAC : Yes
Format settings, ReFrames : 8 frames
Codec ID : avc1
Codec ID/Info : Advanced Video Coding
Duration : 1h 43mn
Bit rate : 971 Kbps
Maximum bit rate : 10.8 Mbps
Width : 960 pixels
Height : 400 pixels
Display aspect ratio : 2.40:1
Frame rate mode : Constant
Frame rate : 23.976 fps
Color space : YUV
Chroma subsampling : 4:2:0
Bit depth : 8 bits
Scan type : Progressive
Bits/(Pixel*Frame) : 0.105
Stream size : 719 MiB (88%)
Writing library : x264 core 130 r2273 b3065e6
Encoding settings : cabac=1 / ref=8 / deblock=1:-3:-3 / analyse=0x3:0x133 / me=esa / subme=9 / psy=1 / psy_rd=1.00:0.15 / mixed_ref=1 / me_range=32 / chroma_me=1 / trellis=2 / 8x8dct=1 / cqm=0 / deadzone=21,11 / fast_pskip=0 / chroma_qp_offset=-3 / threads=12 / lookahead_threads=2 / sliced_threads=0 / nr=0 / decimate=1 / interlaced=0 / bluray_compat=0 / constrained_intra=0 / bframes=9 / b_pyramid=2 / b_adapt=2 / b_bias=0 / direct=1 / weightb=1 / open_gop=0 / weightp=2 / keyint=250 / keyint_min=25 / scenecut=40 / intra_refresh=0 / rc_lookahead=60 / rc=crf / mbtree=1 / crf=20.0 / qcomp=0.60 / qpmin=0 / qpmax=69 / qpstep=4 / ip_ratio=1.40 / aq=1:0.90
Language : English
Encoded date : UTC 2015-01-21 17:56:25
Tagged date : UTC 2015-01-21 17:56:42

Audio
ID : 2
Format : AAC
Format/Info : Advanced Audio Codec
Format profile : LC
Codec ID : 40
Duration : 1h 43mn
Bit rate mode : Variable
Bit rate : 128 Kbps
Maximum bit rate : 135 Kbps
Channel(s) : 2 channels
Channel positions : Front: L R
Sampling rate : 48.0 KHz
Compression mode : Lossy
Stream size : 94.8 MiB (12%)
Title : Dub
Language : Russian
Encoded date : UTC 2015-01-21 17:56:37
Tagged date : UTC 2015-01-21 17:56:42


Трекер:  [ 21-Янв-2015 23:00 ]

  

Скачать .torrent

Размер .torrent файла 16 KB


Размер: 820 MB
Хэш (hash) релиза: e4923dff7ba8cddaf2dea89f5337be8496a6ebd5

Еще никто не оставлял запись к записи скачать торрент [VIDEO] Судная ночь 2 The Purge: Anarchy . Будь первым!

!Обратная связь