Animation | TV Show Request V2 | The Flash HDTV 720p AC3 5.1

Скачать через торрент [VIDEO] Секс на две ночи Two Night Stand бесплатно русская версия torrent активатор

Статистика раздачи
Размер:  890 MB   |    Зарегистрирован:  3 года 5 месяцев   |    .torrent скачан:  42 раза   |   
Раздают:  1  
   
загрузка...
 
Автор Сообщение

Galfimbul

avatar Galfimbul


Секс на две ночи
Two Night Stand

Год выпуска: 2014
Страна: США (Demarest Films, Flynn Picture Company)
Жанр: Комедия, мелодрама
Продолжительность: 01:26:13
Перевод: Профессиональный (многоголосый закадровый)
Оригинальная дорожка: Нет
Cубтитры: Нет
Режиссер: Макс Николс / Max Nichols
В ролях: Аналей Типтон, Майлз Теллер, Джессика Зор, Скотт Мескади, Берто Колон, Джош Салатин, Келлин Линдсэй, Майкл Шоуолтер, Ливэн Рамбин, Джои Лорен Эдамс
Описание: Девушка застряла дома у парня на целый день из-за ужасного снежного шторма. Благодаря этому несчастному случаю молодые люди получают возможность познакомиться поближе.

Качество: HDRip (Рип с BDRip 1080p)
Формат: MP4
Видео: AVC, 960x400 (2.40:1), 1312 kbps, 23.976 fps
Аудио: Русский, AAC, 2 ch, 48 kHz, 128 kbps [MVO]
Имя пользователя персонажа Майлза Теллера на сайте – «MrNovember» (Мистер Ноябрь), а не «MrFantastic» (Мистер Фантастик). Эта сцена фильма была снята в 2012 году, тогда еще не было известно, что Теллер получит именно эту роль.
x264 [info]: frame I:1076 Avg QP:12.80 size: 65979
x264 [info]: frame P:25717 Avg QP:16.08 size: 16093
x264 [info]: frame B:96830 Avg QP:18.15 size: 3723

x264 [total]: encoded 123623 frames, 9.36 fps, 1311.66 kb/s
General
Complete name : [VIDEO] Two.Night.Stand.2014.HDRip.x264.960x(semen_52-TNC).mp4
Format : MPEG-4
Format profile : Base Media
Codec ID : isom
File size : 890 MiB
Duration : 1h 26mn
Overall bit rate mode : Variable
Overall bit rate : 1 443 Kbps
Movie name : [VIDEO] Two Night Stand 2014 HDRip x264 960x(semen_52-TNC)
ContentType : Short Film
Encoded date : UTC 2015-01-21 17:59:39
Tagged date : UTC 2015-01-21 18:01:00
Writing application : MkvToMp4 version: 0.224 (x64)
Comment : Rip by semen_52-TNC

Video
ID : 1
Format : AVC
Format/Info : Advanced Video Codec
Format profile : [email protected]
Format settings, CABAC : Yes
Format settings, ReFrames : 8 frames
Codec ID : avc1
Codec ID/Info : Advanced Video Coding
Duration : 1h 25mn
Bit rate : 1 312 Kbps
Maximum bit rate : 5 395 Kbps
Width : 960 pixels
Height : 400 pixels
Display aspect ratio : 2.40:1
Frame rate mode : Constant
Frame rate : 23.976 fps
Color space : YUV
Chroma subsampling : 4:2:0
Bit depth : 8 bits
Scan type : Progressive
Bits/(Pixel*Frame) : 0.142
Stream size : 806 MiB (91%)
Writing library : x264 core 130 r2273 b3065e6
Encoding settings : cabac=1 / ref=8 / deblock=1:-3:-3 / analyse=0x3:0x133 / me=esa / subme=9 / psy=1 / psy_rd=1.00:0.05 / mixed_ref=1 / me_range=32 / chroma_me=1 / trellis=2 / 8x8dct=1 / cqm=0 / deadzone=21,11 / fast_pskip=0 / chroma_qp_offset=-3 / threads=12 / lookahead_threads=2 / sliced_threads=0 / nr=0 / decimate=1 / interlaced=0 / bluray_compat=0 / constrained_intra=0 / bframes=10 / b_pyramid=2 / b_adapt=2 / b_bias=0 / direct=1 / weightb=1 / open_gop=0 / weightp=2 / keyint=250 / keyint_min=25 / scenecut=40 / intra_refresh=0 / rc_lookahead=60 / rc=crf / mbtree=1 / crf=17.0 / qcomp=0.60 / qpmin=0 / qpmax=69 / qpstep=4 / ip_ratio=1.40 / aq=1:0.90
Language : English
Encoded date : UTC 2015-01-21 17:59:39
Tagged date : UTC 2015-01-21 18:00:09

Audio
ID : 2
Format : AAC
Format/Info : Advanced Audio Codec
Format profile : LC
Codec ID : 40
Duration : 1h 26mn
Bit rate mode : Variable
Bit rate : 128 Kbps
Maximum bit rate : 135 Kbps
Channel(s) : 2 channels
Channel positions : Front: L R
Sampling rate : 48.0 KHz
Compression mode : Lossy
Stream size : 78.9 MiB (9%)
Title : MVO
Language : Russian
Encoded date : UTC 2015-01-21 17:59:51
Tagged date : UTC 2015-01-21 18:00:09


Трекер:  [ 21-Янв-2015 23:00 ]

  

Скачать .torrent

Размер .torrent файла 18 KB


Размер: 890 MB
Хэш (hash) релиза: dc08dfe349448029ff0834129dc47633fe49107e

Еще никто не оставлял запись к записи скачать торрент [VIDEO] Секс на две ночи Two Night Stand . Будь первым!

!Обратная связь