Mia Tuean | Main Badhiya Tu Bhi Badhiya From Sanju Single | Die Simpsons

Скачать через торрент [VIDEO] Открытые окна Open Windows бесплатно русская версия torrent активатор

Статистика раздачи
Размер:  1.27 GB   |    Зарегистрирован:  3 года 5 месяцев   |    .torrent скачан:  59 раз   |   
Раздают:  1  
   
загрузка...
 
Автор Сообщение

Galfimbul

avatar Galfimbul


Открытые окна
Open Windows

Год выпуска: 2014
Страна: США, Испания (Apaches Entertainment, Atresmedia Cine, La Panda)
Жанр: Триллер
Продолжительность: 01:40:30
Перевод: Профессиональный (полное дублирование)
Оригинальная дорожка: Нет
Cубтитры: Нет
Режиссер: Начо Вигалондо / Nacho Vigalondo
В ролях: Элайджа Вуд, Саша Грей, Нил Мэскелл, Мишель Хеннер, Хулиан Вильягран, Карлос Аресес, Рауль Симас, Мигель Ногера, Начо Вигалондо
Описание: Ник — фанат актрисы Джилл Годдард и редактор ее неофициального сайта. Он выигрывает конкурс, главный приз в котором — ужин со звездой после презентации ее нового фильма. Во время онлайн репортажа с презентации, которая транслируется через сайт Ника, раздается звонок и человек, представившийся Кордом, объявляет ему, что ужин отменен. Ник даже не подозревает, что стал пешкой в игре, цель которой — убийство Джилл…

Качество: HDRip (Рип с BDRip 1080p)
Формат: MP4
Видео: AVC, 960x540 (16:9), 1671 kbps, 24.000 fps
Аудио: Русский, AAC, 2 ch, 48 kHz, 128 kbps [Dub]
Режиссер Начо Вигалондо хотел снимать фильм, используя новейшие технологии. По этой причине он отказался использовать классические камеры и вместо них снимал на веб-камеры.
Фильм был снят в режиме реального времени, чтобы сюжет выглядел более реалистичным.
На одном из фестивалей, где проходил показ фильма, режиссер заявил, что он позволит зрителям дать ему пощечину при выходе из зала, если фильм им не понравится.
Когда в конце фильма в героя Элайджы Вуда стреляет через лобовое стекло, в стекле остается пулевое отверстие. В следующих сценах его там нет.
Время на всех камерах наблюдения стоит на месте то 20:59, то 22:38.
x264 [info]: frame I:641 Avg QP:17.80 size: 66715
x264 [info]: frame P:31429 Avg QP:20.87 size: 17739
x264 [info]: frame B:112804 Avg QP:22.57 size: 5857

x264 [total]: encoded 144874 frames, 2.97 fps, 1671.13 kb/s
General
Complete name : [VIDEO] Open.Windows.2014.HDRip.x264.960x(semen_52-TNC).mp4
Format : MPEG-4
Format profile : Base Media
Codec ID : isom
File size : 1.27 GiB
Duration : 1h 40mn
Overall bit rate mode : Variable
Overall bit rate : 1 806 Kbps
Movie name : [VIDEO] Open Windows 2014 HDRip x264 960x(semen_52-TNC)
ContentType : Short Film
Encoded date : UTC 2015-01-21 15:24:53
Tagged date : UTC 2015-01-21 15:26:56
Writing application : MkvToMp4 version: 0.224 (x64)
Comment : Rip by semen_52-TNC

Video
ID : 1
Format : AVC
Format/Info : Advanced Video Codec
Format profile : [email protected]
Format settings, CABAC : Yes
Format settings, ReFrames : 8 frames
Codec ID : avc1
Codec ID/Info : Advanced Video Coding
Duration : 1h 40mn
Bit rate : 1 671 Kbps
Maximum bit rate : 11.2 Mbps
Width : 960 pixels
Height : 540 pixels
Display aspect ratio : 16:9
Frame rate mode : Constant
Frame rate : 24.000 fps
Color space : YUV
Chroma subsampling : 4:2:0
Bit depth : 8 bits
Scan type : Progressive
Bits/(Pixel*Frame) : 0.134
Stream size : 1.17 GiB (93%)
Writing library : x264 core 130 r2273 b3065e6
Encoding settings : cabac=1 / ref=8 / deblock=1:-2:-2 / analyse=0x3:0x133 / me=esa / subme=9 / psy=1 / psy_rd=1.05:0.15 / mixed_ref=1 / me_range=32 / chroma_me=1 / trellis=2 / 8x8dct=1 / cqm=0 / deadzone=21,11 / fast_pskip=0 / chroma_qp_offset=-3 / threads=12 / lookahead_threads=2 / sliced_threads=0 / nr=0 / decimate=1 / interlaced=0 / bluray_compat=0 / constrained_intra=0 / bframes=10 / b_pyramid=2 / b_adapt=2 / b_bias=0 / direct=1 / weightb=1 / open_gop=0 / weightp=2 / keyint=250 / keyint_min=25 / scenecut=40 / intra_refresh=0 / rc_lookahead=60 / rc=crf / mbtree=1 / crf=20.5 / qcomp=0.60 / qpmin=0 / qpmax=69 / qpstep=4 / ip_ratio=1.40 / aq=1:1.00
Language : English
Encoded date : UTC 2015-01-21 15:24:53
Tagged date : UTC 2015-01-21 15:25:34

Audio
ID : 2
Format : AAC
Format/Info : Advanced Audio Codec
Format profile : LC
Codec ID : 40
Duration : 1h 40mn
Bit rate mode : Variable
Bit rate : 128 Kbps
Maximum bit rate : 135 Kbps
Channel(s) : 2 channels
Channel positions : Front: L R
Sampling rate : 48.0 KHz
Compression mode : Lossy
Stream size : 92.0 MiB (7%)
Title : Dub
Language : Russian
Encoded date : UTC 2015-01-21 15:25:09
Tagged date : UTC 2015-01-21 15:25:34


Трекер:  [ 21-Янв-2015 22:30 ]

  

Скачать .torrent

Размер .torrent файла 13 KB


Размер: 1.27 GB
Хэш (hash) релиза: 50f27f095f6a8bb22d31a4ac219ab3c4f4e9611c

Торренты, похожие на [VIDEO] Открытые окна Open Windows скачать торрент

Форум Название Автор Размер S L Добавлен
Видео (Фильмы/Клипы) ·· [VIDEO] Открытые окна / Open Windows (Начо Вигалондо / Nacho Vigalondo) [2014, триллер, BDRip] [MP4, 1280x] Galfimbul 20318947391.89 GB 0 0 1453822710

18:38

26-Янв-16

Еще никто не оставлял запись к записи скачать торрент [VIDEO] Открытые окна Open Windows . Будь первым!

!Обратная связь