Regarder Le Film | [FootsieBabes.com / 21Sextury.com] Charisma Capelli (Irresistable Charisma) [28.04.2012 г., Blonde, Natural Tits, Tatooed, Foot, Oral, Hardcore, Cumshot, 1080p] | Best Android Apps - July 2018!

Скачать через торрент [VIDEO] Пристегните ремни Allacciate le cinture бесплатно русская версия torrent активатор

Статистика раздачи
Размер:  1011 MB   |    Зарегистрирован:  3 года 6 месяцев   |    .torrent скачан:  43 раза   |   
Раздают:  1  
   
загрузка...
 
Автор Сообщение

Galfimbul

avatar Galfimbul


Пристегните ремни
Allacciate le cinture

Год выпуска: 2014
Страна: Италия (R&C Produzioni, Faros Film, Rai Cinema)
Жанр: Мелодрама
Продолжительность: 01:50:53
Перевод: Профессиональный (полное дублирование)
Оригинальная дорожка: Нет
Cубтитры: Нет
Режиссер: Ферзан Озпетек / Ferzan Ozpetek
В ролях: Касия Смутняк, Франческо Арка, Филиппо Шиккьятано, Каролина Крешентини, Паола Миначчони, Елена София Риччи, Франческо Шианна, Карла Синьорис, Луиза Раньери, Джулия Микелини
Описание: Елена и Антонио точно не созданы друг для друга. Она — интеллигентная девушка из хорошей семьи, он — чувственное животное, хамоватый неграмотный механик. Они абсолютно разные — по характеру, жизненным приоритетам, отношению к миру. И, тем не менее, чувствуют непреодолимое взаимное притяжение, хотя всячески пытаются с ним справиться. Не только потому, что между ними нет ничего общего, но и по более важным причинам: у Елены роман с архитектором Джорджио, а Антонио встречается с ее лучшей подругой Сильвией. Однако страсть сильнее — и молодые люди женятся. Спустя несколько лет Елена понимает, что, возможно, совершила трагическую ошибку…

Качество: HDRip (Рип с BDRip 1080p)
Формат: MP4
Видео: AVC, 960x408 (2.35:1), 1139 kbps, 23.976 fps
Аудио: Русский, AAC, 2 ch, 48 kHz, 128 kbps [Dub]
x264 [info]: frame I:1231 Avg QP:14.81 size: 48586
x264 [info]: frame P:37542 Avg QP:18.24 size: 12946
x264 [info]: frame B:120755 Avg QP:21.06 size: 3323

x264 [total]: encoded 159528 frames, 10.57 fps, 1138.78 kb/s
General
Complete name : [VIDEO] Pristegnite.remni.2014.HDRip.x264.960x(semen_52-TNC).mp4
Format : MPEG-4
Format profile : Base Media
Codec ID : isom
File size : 1 011 MiB
Duration : 1h 50mn
Overall bit rate mode : Variable
Overall bit rate : 1 274 Kbps
Movie name : [VIDEO] Pristegnite remni 2014 HDRip x264 960x(semen_52-TNC)
ContentType : Short Film
Encoded date : UTC 2015-01-21 17:57:54
Tagged date : UTC 2015-01-21 17:58:54
Writing application : MkvToMp4 version: 0.224 (x64)
Comment : Rip by semen_52-TNC

Video
ID : 1
Format : AVC
Format/Info : Advanced Video Codec
Format profile : [email protected]
Format settings, CABAC : Yes
Format settings, ReFrames : 8 frames
Codec ID : avc1
Codec ID/Info : Advanced Video Coding
Duration : 1h 50mn
Bit rate : 1 139 Kbps
Maximum bit rate : 8 146 Kbps
Width : 960 pixels
Height : 408 pixels
Display aspect ratio : 2.35:1
Frame rate mode : Constant
Frame rate : 23.976 fps
Color space : YUV
Chroma subsampling : 4:2:0
Bit depth : 8 bits
Scan type : Progressive
Bits/(Pixel*Frame) : 0.121
Stream size : 903 MiB (89%)
Writing library : x264 core 130 r2273 b3065e6
Encoding settings : cabac=1 / ref=8 / deblock=1:-2:-1 / analyse=0x3:0x133 / me=esa / subme=9 / psy=1 / psy_rd=1.00:0.15 / mixed_ref=1 / me_range=32 / chroma_me=1 / trellis=2 / 8x8dct=1 / cqm=0 / deadzone=21,11 / fast_pskip=0 / chroma_qp_offset=-3 / threads=12 / lookahead_threads=2 / sliced_threads=0 / nr=0 / decimate=1 / interlaced=0 / bluray_compat=0 / constrained_intra=0 / bframes=9 / b_pyramid=2 / b_adapt=2 / b_bias=0 / direct=1 / weightb=1 / open_gop=0 / weightp=2 / keyint=250 / keyint_min=25 / scenecut=40 / intra_refresh=0 / rc_lookahead=60 / rc=crf / mbtree=1 / crf=19.0 / qcomp=0.60 / qpmin=0 / qpmax=69 / qpstep=4 / ip_ratio=1.40 / aq=1:1.00
Language : English
Encoded date : UTC 2015-01-21 17:57:54
Tagged date : UTC 2015-01-21 17:58:27

Audio
ID : 2
Format : AAC
Format/Info : Advanced Audio Codec
Format profile : LC
Codec ID : 40
Duration : 1h 50mn
Bit rate mode : Variable
Bit rate : 128 Kbps
Maximum bit rate : 135 Kbps
Channel(s) : 2 channels
Channel positions : Front: L R
Sampling rate : 48.0 KHz
Compression mode : Lossy
Stream size : 102 MiB (10%)
Title : Dub
Language : Russian
Encoded date : UTC 2015-01-21 17:58:08
Tagged date : UTC 2015-01-21 17:58:27


Трекер:  [ 21-Янв-2015 22:30 ]

  

Скачать .torrent

Размер .torrent файла 20 KB


Размер: 1011 MB
Хэш (hash) релиза: 6e06c12805ccbe546e5bc6f7d6d52a341751c830

Еще никто не оставлял запись к записи скачать торрент [VIDEO] Пристегните ремни Allacciate le cinture . Будь первым!

!Обратная связь