The Hollow HDTV 720p AC3 5.1 | Weird Science | Animal Kingdom S03E07 VOSTFR HDTV

Скачать через торрент [VIDEO] Теория заговора Zulu бесплатно русская версия torrent активатор

Статистика раздачи
Размер:  1.15 GB   |    Зарегистрирован:  3 года 5 месяцев   |    .torrent скачан:  44 раза   |   
Раздают:  1  
   
загрузка...
 
Автор Сообщение

Galfimbul

avatar Galfimbul


Теория заговора
Zulu

Год выпуска: 2013
Страна: Франция, ЮАР (Canal+ [fr], Ciné, Eskwad, Lobster Tree, M6, M6 Films, Pathé, W9)
Жанр: Триллер, драма, криминал
Продолжительность: 01:46:41
Перевод: Профессиональный (многоголосый закадровый)
Оригинальная дорожка: Английский
Cубтитры: Русские полные, отключаемые
Оригинальная дорожка: Нет
Cубтитры: Нет
Режиссер: Жером Салль / Jérôme Salle
В ролях: Орландо Блум, Форест Уитакер, Таня ван Граан, Наташа Лоринг, Роксанна Прентис, Патрик Листер, Свен Рюйгрок, Келси Иган, Конрад Кемп, Лизе Слэббер
Описание: Южная Африка. Кейптаун. 2012 год. Отдел серийных убийств полиции Кейптауна начинает расследование зверского убийства белой девушки. Казавшееся тривиальным преступление быстро превращается в круговорот перестрелок и смертей, ибо в деле оказываются замешаны сначала торговцы наркотиками, потом банды совершенно отмороженных головорезов, а дальше полицейские выходят на интересы могущественной транснациональной корпорации.
В жестком, динамичном и бескомпромиссном криминальном триллере, где кровь льется рекой, героям трудно выжить и не всем это удается. Но детективы Али Сокил и Брайан Ипкин идут до конца, какую бы цену им не пришлось за это заплатить.

Качество: HDRip (Рип с BDRip 1080p)
Формат: MP4
Видео: AVC, 960x400 (2.40:1), 1272 kbps, 24.000 fps
Аудио 1: Русский, AAC, 2 ch, 48 kHz, 128 kbps [MVO]
Аудио 2: Английский, AAC, 2 ch, 48 kHz, 128 kbps [Original]
Джимон Хонсу мог сыграть роль в этом фильме, но покинул проект, и его роль досталась Форесту Уитакеру.
x264 [info]: frame I:1350 Avg QP:15.35 size: 60822
x264 [info]: frame P:36051 Avg QP:18.84 size: 14467
x264 [info]: frame B:116243 Avg QP:22.09 size: 3563

x264 [total]: encoded 153644 frames, 9.96 fps, 1271.89 kb/s
General
Complete name : [VIDEO] Teorija.Zagovora.2013.HDRip.x264.960x(semen_52-TNC).mp4
Format : MPEG-4
Format profile : Base Media
Codec ID : isom
File size : 1.15 GiB
Duration : 1h 46mn
Overall bit rate mode : Variable
Overall bit rate : 1 539 Kbps
Movie name : [VIDEO] Teorija Zagovora 2013 HDRip x264 960x(semen_52-TNC)
ContentType : Short Film
Encoded date : UTC 2015-01-21 15:39:11
Tagged date : UTC 2015-01-21 15:42:09
Writing application : MkvToMp4 version: 0.224 (x64)
Comment : Rip by semen_52-TNC

Video
ID : 1
Format : AVC
Format/Info : Advanced Video Codec
Format profile : [email protected]
Format settings, CABAC : Yes
Format settings, ReFrames : 8 frames
Codec ID : avc1
Codec ID/Info : Advanced Video Coding
Duration : 1h 46mn
Bit rate : 1 272 Kbps
Maximum bit rate : 10.9 Mbps
Width : 960 pixels
Height : 400 pixels
Display aspect ratio : 2.40:1
Frame rate mode : Constant
Frame rate : 24.000 fps
Color space : YUV
Chroma subsampling : 4:2:0
Bit depth : 8 bits
Scan type : Progressive
Bits/(Pixel*Frame) : 0.138
Stream size : 971 MiB (83%)
Writing library : x264 core 130 r2273 b3065e6
Encoding settings : cabac=1 / ref=8 / deblock=1:-3:-2 / analyse=0x3:0x133 / me=esa / subme=9 / psy=1 / psy_rd=1.00:0.15 / mixed_ref=1 / me_range=32 / chroma_me=1 / trellis=2 / 8x8dct=1 / cqm=0 / deadzone=21,11 / fast_pskip=0 / chroma_qp_offset=-3 / threads=12 / lookahead_threads=2 / sliced_threads=0 / nr=0 / decimate=1 / interlaced=0 / bluray_compat=0 / constrained_intra=0 / bframes=9 / b_pyramid=2 / b_adapt=2 / b_bias=0 / direct=1 / weightb=1 / open_gop=0 / weightp=2 / keyint=250 / keyint_min=25 / scenecut=40 / intra_refresh=0 / rc_lookahead=60 / rc=crf / mbtree=1 / crf=19.0 / qcomp=0.60 / qpmin=0 / qpmax=69 / qpstep=4 / ip_ratio=1.40 / aq=1:1.00
Language : English
Encoded date : UTC 2015-01-21 15:39:11
Tagged date : UTC 2015-01-21 15:40:10

Audio #1
ID : 2
Format : AAC
Format/Info : Advanced Audio Codec
Format profile : LC
Codec ID : 40
Duration : 1h 46mn
Bit rate mode : Variable
Bit rate : 128 Kbps
Maximum bit rate : 135 Kbps
Channel(s) : 2 channels
Channel positions : Front: L R
Sampling rate : 48.0 KHz
Compression mode : Lossy
Stream size : 97.7 MiB (8%)
Title : MVO
Language : Russian
Encoded date : UTC 2015-01-21 15:39:26
Tagged date : UTC 2015-01-21 15:40:10

Audio #2
ID : 3
Format : AAC
Format/Info : Advanced Audio Codec
Format profile : LC
Codec ID : 40
Duration : 1h 46mn
Bit rate mode : Variable
Bit rate : 128 Kbps
Maximum bit rate : 135 Kbps
Channel(s) : 2 channels
Channel positions : Front: L R
Sampling rate : 48.0 KHz
Compression mode : Lossy
Stream size : 97.7 MiB (8%)
Title : Original
Language : English
Encoded date : UTC 2015-01-21 15:39:56
Tagged date : UTC 2015-01-21 15:40:10

Text
ID : 4
Format : Timed Text
Muxing mode : sbtl
Codec ID : tx3g
Duration : 1h 42mn
Bit rate mode : Variable
Bit rate : 92 bps
Stream size : 68.9 KiB (0%)
Language : Russian
Encoded date : UTC 2015-01-21 15:40:10
Tagged date : UTC 2015-01-21 15:40:10


Трекер:  [ 21-Янв-2015 22:30 ]

  

Скачать .torrent

Размер .torrent файла 12 KB


Размер: 1.15 GB
Хэш (hash) релиза: 47ca9356edd68ce3432ce6ab0a8ea487002119d2

Еще никто не оставлял запись к записи скачать торрент [VIDEO] Теория заговора Zulu . Будь первым!

!Обратная связь