Isabella Sermon | free movies | Télécharger !

Скачать через торрент [ANIME] Судьба: Ночь Схватки бесплатно русская версия torrent активатор

Статистика раздачи
Размер:  677 MB   |    Зарегистрирован:  3 года 6 месяцев   |    .torrent скачан:  46 раз   |   
Раздают:  1  
   
загрузка...
 
Автор Сообщение

Galfimbul

avatar Galfimbul



Судьба: Ночь Схватки (фильм) / Fate/Stay Night: Unlimited Blade Works / 劇場版 Fate/stay night: UNLIMITED BLADE WORKS

Год выпуска: 2010 || Страна: Япония || Жанр: приключения, фэнтези || Продолжительность: полнометражный фильм, 107 мин.

Перевод: Любительский (одноголосый) от Cuba77 [семпл]

Режиссёр: Ямагути Юдзи || Автор оригинала: Насу Киноко || Студия: Studio DEEN
И снова в городке Фуюки кипит магическая война за Святой Грааль, в которую среди семи Мастеров-магов оказался втянут мало что понимающий школьник Сиро Эмия. Действия сторон хаотичны, союзы скоротечны, предательство ждет за каждым углом. Но в борьбе всех против всех мы теперь узнаем иную историю, которая проливает новый свет на происхождение и отношения полюбившихся героев. Мир состоит из деталей, и даже маленькая развилка способна полностью перекроить вроде бы знакомый сюжет и заставить нас забыть обо всем, оказавшись под багровым солнцем на поле из клинков…

Больше дела, меньше слов – вот девиз нового воплощения «Ночи схватки». Все великолепие современной анимации - в фильме про Бесконечный Мир Клинков! Еще никогда битвы во вселенной Type-Moon не выглядели так роскошно!

© Hollow, World Art
[url=...240864] [/url]

Качество: BDRip || Энкод оригинала: Salender [1280x720] || Хардсаб: нет || Формат: mp4
Видео: XviD, 640x360, 762 Kbps, 23.976 fps, 0.140 bit/pixel || Аудио: Russian, AAC, 48000Hz, 128 Kbps, 2ch

General
Complete name                    : H:\Видео\Mobile\Fate Stay Night - Unlimited Blade Works [BDRip 640x360 XviD AAC]\Fate Stay Night - Unlimited Blade Works [BDRip 640x360 XviD AAC].mp4
Format                           : MPEG-4
Format profile                   : Base Media / Version 2
Codec ID                         : mp42
File size                        : 677 MiB
Duration                         : 1h 45mn
Overall bit rate                 : 895 Kbps
Encoded date                     : UTC 2011-06-25 13:53:05
Tagged date                      : UTC 2011-06-30 18:45:36
Comment                          : Encode by Mangaku for RuTracker.org from RG Mobile
stik                             : 10

Video
ID                               : 201
Format                           : MPEG-4 Visual
Format profile                   : Advanced [email protected]
Format settings, BVOP            : No
Format settings, QPel            : No
Format settings, GMC             : No warppoints
Format settings, Matrix          : Default (H.263)
Codec ID                         : 20
Duration                         : 1h 45mn
Bit rate mode                    : Variable
Bit rate                         : 762 Kbps
Maximum bit rate                 : 2 069 Mbps
Width                            : 640 pixels
Height                           : 360 pixels
Display aspect ratio             : 16:9
Frame rate mode                  : Variable
Frame rate                       : 23.675 fps
Original frame rate              : 23.976 fps
Minimum frame rate               : 0.252 fps
Maximum frame rate               : 23.976 fps
Color space                      : YUV
Chroma subsampling               : 4:2:0
Bit depth                        : 8 bits
Scan type                        : Progressive
Compression mode                 : Lossy
Bits/(Pixel*Frame)               : 0.140
Stream size                      : 576 MiB (85%)
Writing library                  : XviD 1.2.1 (UTC 2008-12-04)
Encoded date                     : UTC 2011-06-25 13:53:05
Tagged date                      : UTC 2011-06-25 13:53:32

Audio
ID                               : 101
Format                           : AAC
Format/Info                      : Advanced Audio Codec
Format profile                   : LC
Codec ID                         : 40
Duration                         : 1h 45mn
Bit rate mode                    : Variable
Bit rate                         : 128 Kbps
Maximum bit rate                 : 265 Kbps
Channel(s)                       : 2 channels
Channel positions                : Front: L R
Sampling rate                    : 48.0 KHz
Compression mode                 : Lossy
Stream size                      : 96.8 MiB (14%)
Encoded date                     : UTC 2011-06-25 13:53:28
Tagged date                      : UTC 2011-06-25 13:53:32

Приятного просмотра!


Трекер:  [ 20-Янв-2015 17:00 ]

  

Скачать .torrent

Размер .torrent файла 14 KB


Размер: 677 MB
Хэш (hash) релиза: c49c1409295b8b5505c310b157158b686ccd6cc6

Еще никто не оставлял запись к записи скачать торрент [ANIME] Судьба: Ночь Схватки . Будь первым!

!Обратная связь