Robert Downey Jr. | Поделиться в Вконтакте | Más detalles

Скачать через торрент [ANIME] Пожиратель Душ: Зеро Ga-Rei: Zero бесплатно русская версия torrent активатор

Статистика раздачи
Размер:  1.78 GB   |    Зарегистрирован:  3 года 6 месяцев   |    .torrent скачан:  43 раза   |   
Раздают:  1  
   
загрузка...
 
Автор Сообщение

Galfimbul

avatar Galfimbul



Пожиратель Душ: Зеро / Ga-Rei: Zero / 喰霊 -零-

Год выпуска: 2010 || Страна: Япония || Жанр: приключения, мистика, триллер, драма || Продолжительность: 12 эп. по 25 мин.

Перевод: Любительский (одноголосый) от Lisek [семпл]

Режиссёр: Аоки Эй || Автор оригинала: Сэгава Хадзимэ || Студия: asread
Агентство Предотвращения Сверхъестественных Бедствий создано правительством для борьбы с духами. Медиумы, ясновидящие, экзорсисты, люди со странными способностями и со странной внешностью – рискуя своей жизнью, они сражаются со злом, используя самые невероятные приспособления: от волшебных мечей и пистолетов со священной водой до мотоциклов и самолётов.

Однако, несмотря на кровавую атмосферу и бешеный драйв первых двух серий, основные события Ga-Rei Zero посвящены не только выслеживанию и уничтожению опасных чудовищ. Главные героини этого сериала – две девушки, наследницы семей экзорсистов. Старшая, Ёми Исаяма, стала заботливой сестрой и во многом заменила маму юной Кагуре Цутимии, чей отец был слишком занят, чтобы тратить время на дочь.

Ёми и Кагура всегда были вместе – и после школы, и дома, и во время заданий. В их жизни, кроме борьбы с духами, было много счастливых и грустных минут, повседневных радостей и печалей. Коллеги привыкли, что «сестрёнки» бок о бок выполняют свою непростую работу, и никто представить не мог, что Ёми поднимет свой меч на Кагуру…

© Расселл Д. Джонс, World Art
[url=...240864] [/url]

Качество: BDRip || Энкод оригинала: QTS [1280x720] || Хардсаб: нет || Формат: mp4
Видео: XviD, 640x360, 760 Kbps, 23.976 fps, 0.146 bit/pixel || Аудио: Russian, AAC, 48000Hz, 128 Kbps, 2ch

Эпизоды:
01. Above Aoi
02. Manifestation of Hatred
03. Moments of the Chance Meeting
04. The Duty of Justice
05. Obstinate Feelings
06. Beautiful Rival
07. Chain of Blame
08. Down the Path of Revenge
09. Spiral of Sin
10. Behind the Tragedy
11. Disturbance of Fate
12. Yearning Prayer
General
Complete name                    : H:\Видео\Mobile\Ga-Rei Zero [BDRip 640x360 XviD AAC]\Ga-Rei Zero - 01 [BDRip 640x360 XviD AAC].mp4
Format                           : MPEG-4
Format profile                   : Base Media / Version 2
Codec ID                         : mp42
File size                        : 152 MiB
Duration                         : 23mn 44s
Overall bit rate                 : 893 Kbps
Encoded date                     : UTC 2011-06-05 03:17:16
Tagged date                      : UTC 2011-06-25 08:33:51
Comment                          : Encode by Mangaku for RuTracker.org from RG Mobile
stik                             : 10

Video
ID                               : 201
Format                           : MPEG-4 Visual
Format profile                   : Advanced [email protected]
Format settings, BVOP            : No
Format settings, QPel            : No
Format settings, GMC             : No warppoints
Format settings, Matrix          : Default (H.263)
Codec ID                         : 20
Duration                         : 23mn 44s
Bit rate mode                    : Variable
Bit rate                         : 760 Kbps
Maximum bit rate                 : 2 658 Mbps
Width                            : 640 pixels
Height                           : 360 pixels
Display aspect ratio             : 16:9
Frame rate mode                  : Variable
Frame rate                       : 22.572 fps
Original frame rate              : 23.976 fps
Minimum frame rate               : 0.311 fps
Maximum frame rate               : 23.976 fps
Color space                      : YUV
Chroma subsampling               : 4:2:0
Bit depth                        : 8 bits
Scan type                        : Progressive
Compression mode                 : Lossy
Bits/(Pixel*Frame)               : 0.146
Stream size                      : 129 MiB (85%)
Writing library                  : XviD 1.2.1 (UTC 2008-12-04)
Encoded date                     : UTC 2011-06-05 03:17:16
Tagged date                      : UTC 2011-06-05 03:17:21

Audio
ID                               : 101
Format                           : AAC
Format/Info                      : Advanced Audio Codec
Format profile                   : LC
Codec ID                         : 40
Duration                         : 23mn 44s
Bit rate mode                    : Variable
Bit rate                         : 128 Kbps
Maximum bit rate                 : 163 Kbps
Channel(s)                       : 2 channels
Channel positions                : Front: L R
Sampling rate                    : 48.0 KHz
Compression mode                 : Lossy
Stream size                      : 21.7 MiB (14%)
Encoded date                     : UTC 2011-06-05 03:17:20
Tagged date                      : UTC 2011-06-05 03:17:21

Приятного просмотра!


Трекер:  [ 20-Янв-2015 17:00 ]

  

Скачать .torrent

Размер .torrent файла 19 KB


Размер: 1.78 GB
Хэш (hash) релиза: eedc3b9e91592fce454b47d1a0b78d18fb185c0b

Еще никто не оставлял запись к записи скачать торрент [ANIME] Пожиратель Душ: Зеро Ga-Rei: Zero . Будь первым!

!Обратная связь