Watch Movie | Si c'était à refaire | The Big Bang Theory

Скачать через торрент [ANIME] Гэнсикэн Геншикен бесплатно русская версия torrent активатор

Статистика раздачи
Размер:  1.9 GB   |    Зарегистрирован:  3 года 5 месяцев   |    .torrent скачан:  43 раза   |   
Раздают:  1  
   
загрузка...
 
Автор Сообщение

Galfimbul

avatar Galfimbul


Гэнсикэн / Геншикен
Genshiken
Общество изучения Современной художественной культуры.
[Субтитры] | [url=...3482132][Озвучка][/url]
Год выпуска: 2004
Страна: Япония
Жанр: комедия, пародия, повседневность
Продолжительность: 12 эп. по 25 мин.
Субтитры:
<ol class="post-ul">
русские субтитры от Макс 1 (1-6) & Bacchus (7-12)
</ol>
Режиссёр: Икэхата Такаси
Автор оригинала: Кио Симоку
Студия:
Описание:
Студенческие годы - прекрасная пора юности, когда тебя окружают красивые девушки, а свободное время отдано любимому увлечению в клубе... Именно о клубе дальше и пойдёт речь. Робкому первокурснику Сасахара Кандзи предстоит совершить нелёгкий шаг в своей студенческой жизни - вступить в клуб. Чего уж проще? Это как посмотреть, ведь герой оказывается слишком стеснительным и неуверенным в себе, поэтому в желанные аниме или манга клубы он не попадает. Зато остаётся ещё один вариант с многообещающим названием "Гэнсикен". Попытка не пытка - решает молодой человек и идёт на встречу. Но простые с виду анимешники устраивают ему проверку, в результате которой застают его, держащим в руках то, от чего любой воспитанный человек непременно бы смутился и стал цвета спелого помидора. Дни в этом клубе обещают быть весёлыми...

© Катерина Измайлова, World Art
Информационные ссылки: AniDB || World Art || MAL

Качество: DVDRip || Энкод оригинала: Tempest [704х396] || Хардсаб: да || Формат: mp4
Видео: XviD, 640x360, 760 Kbps, 23.976 fps, 0.138 bit/pixel
Аудио: Japanese, AAC, 48000Hz, 128 Kbps, 2ch

01. Study of the Modern Visually-Oriented Culture
02. Comparative Classification of the Modern Youth Through Consumption and Entertainment
03. Problems and Merits of Local Culture Promotion
04. The Sublimating Effects of the Dissimilation Brought on Through Makeup and Costume on Mental Obstacles
05. Limits of Rejection and Reception as Observed in Autonomous Behaviour
06. Theory of the Individual Outside the Boundaries of the Subculture
07. Aspects of Behavioral Selection in Interpersonal Relationships
08. Comparative Research in Production Models and Processes
09. Concerning the Existence of an Expository Requirement under Special Non-social Circumstances
10. Leisure Time Expenditures on Fetishism Considered as an Economic Result
11. The Theory of the Existence of Malice Within Urban Crimes
12. The Countermeasures for the Issues that Occur during the Reorganization of a Group
General
Complete name                    : H:\Видео\Mobile\Genshiken [DVDRip 640x360 XviD AAC] [sub]\Genshiken - 01 [DVDRip 640x360 XviD AAC].mp4
Format                           : MPEG-4
Format profile                   : Base Media / Version 2
Codec ID                         : mp42
File size                        : 162 MiB
Duration                         : 25mn 19s
Overall bit rate                 : 893 Kbps
Encoded date                     : UTC 2011-03-16 02:38:45
Tagged date                      : UTC 2011-03-17 19:10:37
Comment                          : Encode by Mangaku for RuTracker.org
stik                             : 10

Video
ID                               : 201
Format                           : MPEG-4 Visual
Format profile                   : Advanced [email protected]
Format settings, BVOP            : No
Format settings, QPel            : No
Format settings, GMC             : No warppoints
Format settings, Matrix          : Default (H.263)
Codec ID                         : 20
Duration                         : 25mn 19s
Bit rate mode                    : Variable
Bit rate                         : 760 Kbps
Maximum bit rate                 : 3 270 Mbps
Width                            : 640 pixels
Height                           : 360 pixels
Display aspect ratio             : 16:9
Frame rate mode                  : Variable
Frame rate                       : 23.935 fps
Original frame rate              : 23.976 fps
Minimum frame rate               : 4.795 fps
Maximum frame rate               : 23.976 fps
Color space                      : YUV
Chroma subsampling               : 4:2:0
Bit depth                        : 8 bits
Scan type                        : Progressive
Bits/(Pixel*Frame)               : 0.138
Stream size                      : 138 MiB (85%)
Writing library                  : XviD 1.2.1 (UTC 2008-12-04)
Encoded date                     : UTC 2011-03-16 02:38:45
Tagged date                      : UTC 2011-03-16 02:39:20

Audio
ID                               : 101
Format                           : AAC
Format/Info                      : Advanced Audio Codec
Format version                   : Version 4
Format profile                   : LC
Format settings, SBR             : No
Codec ID                         : 40
Duration                         : 25mn 19s
Bit rate mode                    : Variable
Bit rate                         : 128 Kbps
Maximum bit rate                 : 158 Kbps
Channel(s)                       : 2 channels
Channel positions                : Front: L R
Sampling rate                    : 48.0 KHz
Stream size                      : 23.2 MiB (14%)
Encoded date                     : UTC 2011-03-16 02:39:20
Tagged date                      : UTC 2011-03-16 02:39:20

Приятного просмотра!


Трекер:  [ 19-Янв-2015 18:30 ]

  

Скачать .torrent

Размер .torrent файла 20 KB


Размер: 1.9 GB
Хэш (hash) релиза: 764f08ef210cb068c9c2ca7ceb82537489a69ed8

Еще никто не оставлял запись к записи скачать торрент [ANIME] Гэнсикэн Геншикен . Будь первым!

!Обратная связь