Keen WESTWARD WP Walking boots dark olive/rust ZfMUv1 | Download | Lexie Roth

Скачать через торрент [ANIME] Девушка влюбилась в старшую сестру Otome wa Boku ni Koishiteru бесплатно русская версия torrent активатор

Статистика раздачи
Размер:  1.94 GB   |    Зарегистрирован:  3 года 6 месяцев   |    .torrent скачан:  40 раз   |   
Раздают:  1  
   
загрузка...
 
Автор Сообщение

Galfimbul

avatar Galfimbul


Девушка влюбилась в старшую сестру / Otome wa Boku ni Koishiteru
Год выпуска: 2006
Страна: Япония
Жанр: комедия, романтика, школа
Продолжительность: 12 эп. по 25 мин. + 1 DVD-спэшл
Субтитры:
<ol class="post-ul">
русские субтитры от Lionne & Pelikan & Zuma & Neutral
</ol>
Режиссёр: Нава Мунэнори
Автор оригинала: Caramel Box
Студия:
Описание:
Согласно завещанию деда, наш герой, Мидзухо Миянокодзи, должен отныне учиться в закрытой католической школе Сэйо. Все бы ничего, но школа — женская! И хотя достопочтенная госпожа директор, давно знающая семью Миянокодзи, согласна принять его в своем заведении — но только в качестве девушки! Что ж — не смея перечить воле покойного, юный школяр с помощью неугомонной кузины Марии, набора косметики и некоторых добавлений к фигуре превращается в юную школьницу. Но, оказавшись в новой школе, родственники начинают понимать, что, кажется, чуточку перестарались… Трясущегося от страха Мидзухо встречают дружным вздохом восхищения — еще бы! Высокая, с фигурой модели и волной светлых волос, ниспадающих аж ниже талии, она производит фурор среди впечатлительных школьниц! Когда же выясняется, что эта красавица к тому же отличница и спортсменка, общий приговор уже обжалованию не подлежит — Мидзухо-тян должна участвовать в выборах на неформальную должность «старшей сестры» — Самой Лучшей Девушки школы, которая своим примером должна вдохновлять и воспитывать других девушек!

© Сергей Рублёв, World Art
Информационные ссылки: AniDB || World Art || MAL

Качество: DVDRip || Энкод оригинала: CASO [848x480] || Хардсаб: да || Формат: mp4
Видео: XviD, 640x360, 768 Kbps, 23.976 fps, 0.141 bit/pixel
Аудио: Japanese, AAC, 48000Hz, 128 Kbps, 2ch

01. The Prince Who Wore Rouge
02. Unerasable Eraser
03. When The Maidens Choose A Maiden
04. Sleeping Princess Behind The Forbidden Door
05. The Chapel At Midnight
06. A Summer Day's Capriccio
07. Little Kana And The Big Ribbon
08. Unshortened Time
09. Mariya's Feelings
10. The Two Juliets
11. The Etude Of Confusion
12. An Eternal Last Dance

DVD-спэшл:
13. Young Adult's Forest of World Masterpieces ~Tsunderella~
General
Complete name                    : H:\Видео\Mobile\Otome wa Boku ni Koishiteru [DVDRip 640x360 XviD AAC]\Otome wa Boku ni Koishiteru - 01 [DVDRip 640x360 XviD AAC].mp4
Format                           : MPEG-4
Format profile                   : Base Media / Version 2
Codec ID                         : mp42
File size                        : 153 MiB
Duration                         : 23mn 40s
Overall bit rate                 : 901 Kbps
Encoded date                     : UTC 2011-03-09 17:30:23
Tagged date                      : UTC 2011-03-11 16:23:36
Comment                          : Encode by Mangaku for RuTracker.org
stik                             : 10

Video
ID                               : 201
Format                           : MPEG-4 Visual
Format profile                   : Advanced [email protected]
Format settings, BVOP            : No
Format settings, QPel            : No
Format settings, GMC             : No warppoints
Format settings, Matrix          : Default (H.263)
Codec ID                         : 20
Duration                         : 23mn 40s
Bit rate mode                    : Variable
Bit rate                         : 768 Kbps
Maximum bit rate                 : 1 367 Mbps
Width                            : 640 pixels
Height                           : 360 pixels
Display aspect ratio             : 16:9
Frame rate mode                  : Variable
Frame rate                       : 23.709 fps
Original frame rate              : 23.976 fps
Minimum frame rate               : 1.262 fps
Maximum frame rate               : 23.976 fps
Color space                      : YUV
Chroma subsampling               : 4:2:0
Bit depth                        : 8 bits
Scan type                        : Progressive
Bits/(Pixel*Frame)               : 0.141
Stream size                      : 130 MiB (85%)
Title                            : Imported with GPAC 0.4.6-DEV (build 1)
Writing library                  : XviD 1.2.1 (UTC 2008-12-04)
Encoded date                     : UTC 2011-03-09 17:30:23
Tagged date                      : UTC 2011-03-09 17:30:26

Audio
ID                               : 101
Format                           : AAC
Format/Info                      : Advanced Audio Codec
Format version                   : Version 4
Format profile                   : LC
Format settings, SBR             : No
Codec ID                         : 40
Duration                         : 23mn 39s
Bit rate mode                    : Variable
Bit rate                         : 128 Kbps
Maximum bit rate                 : 157 Kbps
Channel(s)                       : 2 channels
Channel positions                : Front: L R
Sampling rate                    : 48.0 KHz
Stream size                      : 21.7 MiB (14%)
Encoded date                     : UTC 2011-03-09 17:30:24
Tagged date                      : UTC 2011-03-09 17:30:26


Приятного просмотра!


Трекер:  [ 19-Янв-2015 18:00 ]

  

Скачать .torrent

Размер .torrent файла 21 KB


Размер: 1.94 GB
Хэш (hash) релиза: f1ed968fc3a59084fb85ca1990e16a22df278957

Еще никто не оставлял запись к записи скачать торрент [ANIME] Девушка влюбилась в старшую сестру Otome wa Boku ni Koishiteru . Будь первым!

!Обратная связь