[Windows] Apeaksoft Video Converter Ultimate V1.0.10.10938 Portable [Multilingue] | IMDb: 7.0 HD What Happened to Monday | The Bold Type saison 2 : Episode 7, le secret explosif de Sutton, notre critique

Скачать через торрент [ANIME] Штурмовые ведьмы Strike Witches бесплатно русская версия torrent активатор

Статистика раздачи
Размер:  1.81 GB   |    Зарегистрирован:  3 года 6 месяцев   |    .torrent скачан:  59 раз   |   
Раздают:  1  
   
загрузка...
 
Автор Сообщение

Galfimbul

avatar Galfimbul



Штурмовые ведьмы [ТВ-1] / Strike Witches / ストライクウィッチーズ

Год выпуска: 2008 || Страна: Япония || Жанр: приключения, фантастика, этти || Продолжительность: 12 эп., 25 мин.

Перевод: Русские субтитры от Дмитрий Иной & HeMet & Hollow

Режиссёр: Такамура Кадзухиро || Сценарий: Симада Фумиканэ || Студия: Gonzo Digimation
Где-то в параллельном мире в 1939 году на Землю явились Неврои – бездушные летающие машины, умеющие только сеять смерть и разрушение. Страны двух блоков, до того стоявшие на пороге мировой войны, срочно объединились для противодействия неведомому агрессору. И что же? Любое традиционное оружие середины XX века пришельцам нипочем - армады самолетов, военный флот, сухопутные армии просто сметаются в небытие. Справиться с Невроями может лишь сплав науки и магии – чудо-оружие, похожее на гибрид сдвоенной ведьминой ступы и боевого самолета. Пользоваться им могут, разумеется, исключительно юные девушки, наделенные волшебными силами, которые со всего мира стекаются в последний оплот Земли – скалистый остров в проливе Ла-Манш. Кстати, оружие требует тесного контакта с телом, поэтому уставной формой отряда «Штурмовых ведьм» являются китель и …трусики!

Аниме посвящено суровым будням борьбы отряда «ведьм» с пришельцами-Невроями, непростым взаимоотношениям в женском коллективе, куда в первых сериях вливается новичок - 14-летняя Ёсика Мияфудзи из островной империи Фусо. Пацифистка Ёсика, чьим основным даром является исцеление, постепенно понимает, что сейчас никто не может стоять в стороне от битвы. Интересно, что национальность, характер и способности каждой из 11 героинь «Штурмовых ведьм» основаны на реальных прототипах – лучших воздушных асах Второй мировой.

© Hollow, World Art
[url=...240864] [/url]

Качество: BDRip || Энкод оригинала: [Yousei-raws] [1280x720] || Хардсаб: да || Формат: mp4
Видео: XviD, 640x360, 760 Kbps, 23.976 fps, 0.139 bit/pixel || Аудио: Japanese, AAC, 48000Hz, 128 Kbps, 2ch

01. Magical Girl
02. To Do What I Can
03. Lonely No More
04. Thank you
05. Swift, Gigantic, and Soft
06. Solidarity
07. Nice 'n Breezy
08. Forget You Not
09. Defend At All Costs
10. Trust and Friendship
11. To The Sky
12. Strike Witches


Семпл: Dropbox (5 MB)

General
Complete name                    : H:\Видео\Mobile\Strike Witches [BDRip 640x360 XviD AAC] [sub]\Strike Witches - 01 [BDRip 640x360 XviD AAC].mp4
Format                           : MPEG-4
Format profile                   : Base Media / Version 2
Codec ID                         : mp42
File size                        : 155 MiB
Duration                         : 24mn 12s
Overall bit rate                 : 893 Kbps
Encoded date                     : UTC 2011-04-22 12:13:46
Tagged date                      : UTC 2011-05-24 11:27:37
Comment                          : Encode by Mangaku for RuTracker.org
stik                             : 10

Video
ID                               : 201
Format                           : MPEG-4 Visual
Format profile                   : Advanced [email protected]
Format settings, BVOP            : No
Format settings, QPel            : No
Format settings, GMC             : No warppoints
Format settings, Matrix          : Default (H.263)
Codec ID                         : 20
Duration                         : 24mn 11s
Bit rate mode                    : Variable
Bit rate                         : 760 Kbps
Maximum bit rate                 : 3 270 Mbps
Width                            : 640 pixels
Height                           : 360 pixels
Display aspect ratio             : 16:9
Frame rate mode                  : Variable
Frame rate                       : 23.795 fps
Original frame rate              : 23.976 fps
Minimum frame rate               : 0.571 fps
Maximum frame rate               : 23.976 fps
Color space                      : YUV
Chroma subsampling               : 4:2:0
Bit depth                        : 8 bits
Scan type                        : Progressive
Compression mode                 : Lossy
Bits/(Pixel*Frame)               : 0.139
Stream size                      : 132 MiB (85%)
Writing library                  : XviD 1.2.1 (UTC 2008-12-04)
Encoded date                     : UTC 2011-04-22 12:13:46
Tagged date                      : UTC 2011-04-22 12:13:52

Audio
ID                               : 101
Format                           : AAC
Format/Info                      : Advanced Audio Codec
Format profile                   : LC
Codec ID                         : 40
Duration                         : 24mn 12s
Bit rate mode                    : Variable
Bit rate                         : 128 Kbps
Maximum bit rate                 : 159 Kbps
Channel(s)                       : 2 channels
Channel positions                : Front: L R
Sampling rate                    : 48.0 KHz
Compression mode                 : Lossy
Stream size                      : 22.1 MiB (14%)
Encoded date                     : UTC 2011-04-22 12:13:51
Tagged date                      : UTC 2011-04-22 12:13:52


Приятного просмотра!


Трекер:  [ 19-Янв-2015 18:00 ]

  

Скачать .torrent

Размер .torrent файла 19 KB


Размер: 1.81 GB
Хэш (hash) релиза: 992e2292aac12fd0cc8eeb36b9aa2344793669d7

Еще никто не оставлял запись к записи скачать торрент [ANIME] Штурмовые ведьмы Strike Witches . Будь первым!

!Обратная связь