The Silence of the Lambs | Bukalapak - Jual Beli Online APK | Концерты, музшоу, выступления

Скачать через торрент [ANIME] Уж не зомби ли это? Kore wa Zombie Desuka? бесплатно русская версия torrent активатор

Статистика раздачи
Размер:  1.85 GB   |    Зарегистрирован:  3 года 6 месяцев   |    .torrent скачан:  46 раз   |   
Раздают:  1  
   
загрузка...
 
Автор Сообщение

Galfimbul

avatar Galfimbul



Год выпуска: 2011
Страна: Япония
Жанр: комедия, мистика, этти
Продолжительность: 12 эп. по 25 мин.
Озвучка:
<ol class="post-ul">
Любительский (одноголосый) (муж.) от Zack_Fair [семпл]
</ol>
Режиссёр: Канасаки Такаоми
Автор оригинала: Кимура Синъити
Студия:
Описание:
Старшеклассник Аюму Айкава в огне не горит, в воде не тонет, даже грузовики ему не страшны. Нет, нет, Аюму не супермен! Он – жертва серийного убийцы, возвращенный к жизни некроманткой Эукливуд Хеллскайт, миниатюрной милой девушкой. Кстати, малышка Эу переселилась в квартиру своего творения, чтобы наблюдать за необычным зомби, который получил сверхчеловеческую силу, выносливость и даже магические способности. Теперь главный герой каждую ночь патрулирует тихие уголки родного города, чтобы поквитаться с маньяком – причиной своего нынешнего состояния. При этом парень не забывает ходить в школу и вести нехитрое хозяйство, благо гостья его не обременяет – в основном пишет записки, ест и спит.

Но недолго возвращенец с того света наслаждался тишиной и покоем! Во время одного из рейдов Аюму наткнулся на юную волшебницу Харуну, сражающуюся со злобными духами Мегало (то есть «большими»). Ввязавшись в чужой бой, парень совершенно случайно поглотил почти всю силу новой знакомой (ничего не напоминает?) и теперь должен принять ее миссию. Вот только при этом на новом защитнике человечества появляются не благородные темные одежды, а костюм махо-сёдзё! Излишне говорить, что шумная и непоседливая Харуна тоже поселилась с героем сериала. А если учесть, что вскоре к компании прибилась ниндзя-вампир Сера, то простой японский зомби собрал просто уникальный гарем!

© Hollow, World Art
Информационные ссылки: AniDB || World Art || MAL

Качество: HDTVRip || Энкод оригинала: HorribleSubs [1280x720] || Хардсаб: нет || Формат: mp4
Видео: XviD, 640x360, 760 Kbps, 23.976 fps, 0.138 bit/pixel
Аудио: Russian, AAC, 48000Hz, 128 Kbps, 2ch

01. Yes, I Am a Masou-Shoujo
02. No, I'm a Bloodsucking Ninja
03. Yes, I Have Twin Tails
04. Am I Radiant?
05. Yes, It's Kyo-Tofu
06. Yes, I am the Harbinger of Death
07. Hey, Where Are You?
08. Hehe, I'm a School Wife
09. Yes, I'm a Great Stripper
10. No, That Will Explode
11. Yes, Stay at My Place!
12. Yes, Still Goes On
General
Complete name                    : H:\Видео\Mobile\Kore wa Zombie Desuka [HDTVRip 640x360 XviD AAC]\Kore wa Zombie Desuka - 01 [HDTVRip 640x360 XviD AAC].mp4
Format                           : MPEG-4
Format profile                   : Base Media / Version 2
Codec ID                         : mp42
File size                        : 158 MiB
Duration                         : 24mn 40s
Overall bit rate                 : 893 Kbps
Encoded date                     : UTC 2011-03-18 00:04:51
Tagged date                      : UTC 2011-03-19 20:40:58
Comment                          : Encode by Mangaku for RuTracker.org
stik                             : 10

Video
ID                               : 201
Format                           : MPEG-4 Visual
Format profile                   : Advanced [email protected]
Format settings, BVOP            : No
Format settings, QPel            : No
Format settings, GMC             : No warppoints
Format settings, Matrix          : Default (H.263)
Codec ID                         : 20
Duration                         : 24mn 39s
Bit rate mode                    : Variable
Bit rate                         : 760 Kbps
Maximum bit rate                 : 2 245 Mbps
Width                            : 640 pixels
Height                           : 360 pixels
Display aspect ratio             : 16:9
Frame rate mode                  : Variable
Frame rate                       : 23.944 fps
Original frame rate              : 23.976 fps
Minimum frame rate               : 7.992 fps
Maximum frame rate               : 23.976 fps
Color space                      : YUV
Chroma subsampling               : 4:2:0
Bit depth                        : 8 bits
Scan type                        : Progressive
Bits/(Pixel*Frame)               : 0.138
Stream size                      : 134 MiB (85%)
Writing library                  : XviD 1.2.1 (UTC 2008-12-04)
Encoded date                     : UTC 2011-03-18 00:04:51
Tagged date                      : UTC 2011-03-18 00:04:56

Audio
ID                               : 101
Format                           : AAC
Format/Info                      : Advanced Audio Codec
Format version                   : Version 4
Format profile                   : LC
Format settings, SBR             : No
Codec ID                         : 40
Duration                         : 24mn 40s
Bit rate mode                    : Variable
Bit rate                         : 128 Kbps
Maximum bit rate                 : 150 Kbps
Channel(s)                       : 2 channels
Channel positions                : Front: L R
Sampling rate                    : 48.0 KHz
Stream size                      : 22.6 MiB (14%)
Encoded date                     : UTC 2011-03-18 00:04:56
Tagged date                      : UTC 2011-03-18 00:04:56

Приятного просмотра!


Трекер:  [ 19-Янв-2015 18:00 ]

  

Скачать .torrent

Размер .torrent файла 20 KB


Размер: 1.85 GB
Хэш (hash) релиза: 37d4d289e4ce4f137f0b1aefcf87bd08f1bab174

Еще никто не оставлял запись к записи скачать торрент [ANIME] Уж не зомби ли это? Kore wa Zombie Desuka? . Будь первым!

!Обратная связь