Crysis v1.1.1.6156 | DVD The Temptations (1998) | No Dormiras

Скачать через торрент [ANIME] Кайдзи Gyakkyou Burai Kaiji: Ultimate Survivor бесплатно русская версия torrent активатор

Статистика раздачи
Размер:  3.8 GB   |    Зарегистрирован:  3 года 7 месяцев   |    .torrent скачан:  48 раз   |   
Раздают:  1  
   
загрузка...
 
Автор Сообщение

Galfimbul

avatar Galfimbul


Кайдзи / Gyakkyou Burai Kaiji: Ultimate Survivor
Год выпуска: 2007
Страна: Япония
Жанр: триллер, приключения
Продолжительность: 26 эп. по 25 мин.
Субтитры:
<ol class="post-ul">
русские субтитры от Колибри (1 серия), Raito (2-7 серии), Matron (8-10 серии), Коммуниздий (11 серия), Animeyes.ru (12-25 серии), YoIIIuk (26 серия).
Перевод песен: Raito. Оформление: Dez.
</ol>
Режиссёр: Сато Юдзо
Автор оригинала: Фукумото Нобуюки
Студия:
Описание:
Кайдзи - безработный бездельник. Он лишь пьет дешевый алкоголь и играет в азартные игры, причем не очень-то удачно. Однажды к нему приходит человек, который заявляет, что Кайдзи задолжал почти 4 млн. йен и отрабатывать такой долг ему придется не меньше 11 лет. Однако у Кайдзи есть альтернатива: можно стать пассажиром Корабля Надежды, где у него появится шанс отыграться, но плата за проигрыш будет высока. Выбора у героя, по сути, не остается...
Информационные ссылки: AniDB || World Art || MAL

Качество: DTVRip || Энкод оригинала: [1024x576] || Хардсаб: да || Формат: mp4
Видео: XviD, 640x360, 760 Kbps, 23.976 fps, 0.139 bit/pixel
Аудио: Japanese, AAC, 48000Hz, 128 Kbps, 2ch

Семпл: Dropbox (11MB)
01. Departure
02. Open Fire
03. Showdown
04. Break Down
05. Desperation
06. Rise and Fall
07. Profess
08. Hammer of Justice
09. Revival
10. Messenger
11. Feeding Frenzy
12. Tumbling Down
13. Monster
14. Phantom
15. Sky
16. Fury
17. Conversation
18. Trifled
19. Limit
20. Departed Souls
21. Heart and Soul
22. Execution
23. Unconventional
24. Condition
25. Pallid
26. Afterglow
General
Complete name                    : H:\Видео\Mobile\Gyakkyou Burai Kaiji - Ultimate Survivor [DTVRip 640x360 XviD AAC] [sub]\Gyakkyou Burai Kaiji - Ultimate Survivor - 01 [DTVRip 640x360 XviD AAC].mp4
Format                           : MPEG-4
Format profile                   : Base Media / Version 2
Codec ID                         : mp42
File size                        : 150 MiB
Duration                         : 23mn 30s
Overall bit rate                 : 893 Kbps
Encoded date                     : UTC 2011-05-24 19:11:57
Tagged date                      : UTC 2011-05-27 15:27:52
Comment                          : Encode by Mangaku for RuTracker.org
stik                             : 10

Video
ID                               : 201
Format                           : MPEG-4 Visual
Format profile                   : Advanced [email protected]
Format settings, BVOP            : No
Format settings, QPel            : No
Format settings, GMC             : No warppoints
Format settings, Matrix          : Default (H.263)
Codec ID                         : 20
Duration                         : 23mn 29s
Bit rate mode                    : Variable
Bit rate                         : 760 Kbps
Maximum bit rate                 : 2 244 Mbps
Width                            : 640 pixels
Height                           : 360 pixels
Display aspect ratio             : 16:9
Frame rate mode                  : Variable
Frame rate                       : 23.735 fps
Original frame rate              : 23.976 fps
Minimum frame rate               : 7.992 fps
Maximum frame rate               : 23.976 fps
Color space                      : YUV
Chroma subsampling               : 4:2:0
Bit depth                        : 8 bits
Scan type                        : Progressive
Compression mode                 : Lossy
Bits/(Pixel*Frame)               : 0.139
Stream size                      : 128 MiB (85%)
Writing library                  : XviD 1.2.1 (UTC 2008-12-04)
Encoded date                     : UTC 2011-05-24 19:11:57
Tagged date                      : UTC 2011-05-24 19:12:03

Audio
ID                               : 101
Format                           : AAC
Format/Info                      : Advanced Audio Codec
Format profile                   : LC
Codec ID                         : 40
Duration                         : 23mn 30s
Bit rate mode                    : Variable
Bit rate                         : 128 Kbps
Maximum bit rate                 : 147 Kbps
Channel(s)                       : 2 channels
Channel positions                : Front: L R
Sampling rate                    : 48.0 KHz
Compression mode                 : Lossy
Stream size                      : 21.5 MiB (14%)
Encoded date                     : UTC 2011-05-24 19:12:02
Tagged date                      : UTC 2011-05-24 19:12:03
[url]...2359734[/url] - там 320x176, тут 640x360.

Приятного просмотра!


Трекер:  [ 19-Янв-2015 18:00 ]

  

Скачать .torrent

Размер .torrent файла 22 KB


Размер: 3.8 GB
Хэш (hash) релиза: fa45468c21173f54a99ec4b6b8a49ffdd3e8c0a6

Еще никто не оставлял запись к записи скачать торрент [ANIME] Кайдзи Gyakkyou Burai Kaiji: Ultimate Survivor . Будь первым!

!Обратная связь