Penn & Teller: Fool Us | The Human Condition | Letterkenny

Скачать через торрент [VIDEO] 31 июня бесплатно русская версия torrent активатор

Статистика раздачи
Размер:  1019 MB   |    Зарегистрирован:  3 года 6 месяцев   |    .torrent скачан:  42 раза   |   
Раздают:  1  
   
загрузка...
 
Автор Сообщение

Galfimbul

avatar Galfimbul


31 июня

Год выпуска: 1978

Страна: СССР
Жанр: музыкальная сказка
Продолжительность: 2:10:27
Перевод: Не требуется
Cубтитры: нет
Оригинальная аудиодорожка: русский

Режиссер: Леонид Квинихидзе
В ролях: Наталья Трубникова, Николай Еременко, Владимир Зельдин, Владимир Этуш, Людмила Власова, Александр Годунов, Любовь Полищук, Игорь Ясулович, Марина Нудьга, Эммануил Геллер, Михаил Кокшенов, Владимир Сошальский
Описание: Фантастическая история любви художника, живущего в XXI веке и принцессы королевства Перадор, времен правления короля Артура.

Качество: DVDRip
Формат: MP4
Видео: 4:3 | 640х480, 25 fps, XviD MPEG-4, 990 kbps
Аудио: 48 kHz, AAC, 2 ch, variable, maximum 132 kbps
Format : MPEG-4Format profile : Base MediaCodec ID : isomFile size : 1 019 MiBDuration : 2h 10mnOverall bit rate : 1 092 KbpsMovie name : 31 июняEncoded date : UTC 2015-01-18 17:49:24Tagged date : UTC 2015-01-18 17:50:44Writing application : MkvToMp4 [www.mkvtomp4.ru] version: 0.224 (x64)hdvd : 0stik : 0

VideoID : 1Format : MPEG-4 VisualFormat profile : Advanced [email protected] settings, BVOP : YesFormat settings, QPel : NoFormat settings, GMC : No warppointsFormat settings, Matrix : Default (H.263)Codec ID : 20Duration : 2h 10mnBit rate mode : VariableBit rate : 990 KbpsMaximum bit rate : 4 040 KbpsWidth : 640 pixelsHeight : 480 pixelsDisplay aspect ratio : 4:3Frame rate mode : ConstantFrame rate : 25.000 fpsColor space : YUVChroma subsampling : 4:2:0Bit depth : 8 bitsScan type : ProgressiveCompression mode : LossyBits/(Pixel*Frame) : 0.129Stream size : 924 MiB (91%)Writing library : XviD 63Language : EnglishTagged date : UTC 2015-01-18 17:49:55

AudioID : 2Format : AACFormat/Info : Advanced Audio CodecFormat profile : LCCodec ID : 40Duration : 2h 10mnBit rate mode : VariableBit rate : 96.0 KbpsMaximum bit rate : 132 KbpsChannel(s) : 2 channelsChannel positions : Front: L RSampling rate : 48.0 KHzCompression mode : LossyStream size : 89.9 MiB (9%)Language : EnglishEncoded date : UTC 2015-01-18 17:44:18Tagged date : UTC 2015-01-18 17:49:55


Трекер:  [ 18-Янв-2015 21:30 ]

  

Скачать .torrent

Размер .torrent файла 20 KB


Размер: 1019 MB
Хэш (hash) релиза: b112ae15c5c4de16aed506ee72fdd182472d30d5

Торренты, похожие на [VIDEO] 31 июня скачать торрент

Форум Название Автор Размер S L Добавлен
Видео (Фильмы/Клипы) ·· [VIDEO] 31 июня (Леонид Квинихидзе) [1978, музыкальная сказка, DVDRip] [AVI, 640x] Galfimbul 11035610221.03 GB 0 0 1421600192

19:56

18-Янв-15

Еще никто не оставлял запись к записи скачать торрент [VIDEO] 31 июня . Будь первым!

!Обратная связь