HD Views: 327 Gabbar is Back(2015) | The Brave | Planeta Feroz BLuRayRip

Скачать через торрент [VIDEO] Холод в июле Cold in July бесплатно русская версия torrent активатор

Статистика раздачи
Размер:  1.1 GB   |    Зарегистрирован:  3 года 6 месяцев   |    .torrent скачан:  40 раз   |   
Раздают:  1  
   
загрузка...
 
Автор Сообщение

Galfimbul

avatar Galfimbul


Холод в июле
Cold in July

Год выпуска: 2014
Страна: США, Франция (Backup Media, BSM Studio, Bullet Pictures, Paradise City)
Жанр: Триллер, криминал, драма
Продолжительность: 01:50:02
Перевод: Профессиональный (полное дублирование)
Оригинальная дорожка: Английский
Cубтитры: Русские, полные, отключаемые
Режиссер: Джим Микл / Jim Mickle
В ролях: Винесса Шоу, Уайатт Расселл, Майкл С. Холл, Дон Джонсон, Сэм Шепард, Ник Дамичи, Лэнни Флаэрти, Кен Холмс, Рэйчел Зейгер-Хааг, Кристин Гриффит
Описание: Ричард Дэйн, тихий и безобидный мужчина, случайно застрелил забравшегося в его дом грабителя. Полиция опознала в убитом давно находящегося в розыске преступника, труп забрали и быстро похоронили. Однако вскоре появляется отец погибшего, Бен Рассел, живущий по принципу «око за око». И теперь Дэйну приходится защищать себя и своего ребенка.

Качество: HDRip (Рип с BDRip 1080p)
Формат: MP4
Видео: AVC, 960x400 (2.40:1), 1170 kbps, 23.976 fps
Аудио 1: Русский, AAC, 2 ch, 48 kHz, 128 kbps [Dub]
Аудио 2: Английский, AAC, 2 ch, 48 kHz, 128 kbps [Original]
x264 [info]: frame I:1200 Avg QP:12.89 size: 59807
x264 [info]: frame P:32553 Avg QP:16.54 size: 15074
x264 [info]: frame B:124545 Avg QP:19.43 size: 3236

x264 [total]: encoded 158298 frames, 7.58 fps, 1169.91 kb/s
General
Complete name : [VIDEO] Cold.in.July.2014.HDRip.x264.960x(semen_52-TNC).mp4
Format : MPEG-4
Format profile : Base Media
Codec ID : isom
File size : 1.10 GiB
Duration : 1h 50mn
Overall bit rate mode : Variable
Overall bit rate : 1 437 Kbps
Movie name : [VIDEO] Cold in July 2014 HDRip x264 960x(semen_52-TNC)
ContentType : Short Film
Encoded date : UTC 2015-01-18 15:29:14
Tagged date : UTC 2015-01-18 15:34:15
Writing application : MkvToMp4 version: 0.224 (x64)
Comment : Rip by semen_52-TNC

Video
ID : 1
Format : AVC
Format/Info : Advanced Video Codec
Format profile : [email protected]
Format settings, CABAC : Yes
Format settings, ReFrames : 8 frames
Codec ID : avc1
Codec ID/Info : Advanced Video Coding
Duration : 1h 50mn
Bit rate : 1 170 Kbps
Maximum bit rate : 8 543 Kbps
Width : 960 pixels
Height : 400 pixels
Display aspect ratio : 2.40:1
Frame rate mode : Constant
Frame rate : 23.976 fps
Color space : YUV
Chroma subsampling : 4:2:0
Bit depth : 8 bits
Scan type : Progressive
Bits/(Pixel*Frame) : 0.127
Stream size : 921 MiB (81%)
Writing library : x264 core 130 r2273 b3065e6
Encoding settings : cabac=1 / ref=8 / deblock=1:-3:-3 / analyse=0x3:0x133 / me=esa / subme=9 / psy=1 / psy_rd=1.00:0.00 / mixed_ref=1 / me_range=32 / chroma_me=1 / trellis=2 / 8x8dct=1 / cqm=0 / deadzone=21,11 / fast_pskip=0 / chroma_qp_offset=-2 / threads=12 / lookahead_threads=2 / sliced_threads=0 / nr=0 / decimate=1 / interlaced=0 / bluray_compat=0 / constrained_intra=0 / bframes=10 / b_pyramid=2 / b_adapt=2 / b_bias=0 / direct=1 / weightb=1 / open_gop=0 / weightp=2 / keyint=250 / keyint_min=25 / scenecut=40 / intra_refresh=0 / rc_lookahead=60 / rc=crf / mbtree=1 / crf=17.0 / qcomp=0.60 / qpmin=0 / qpmax=69 / qpstep=4 / ip_ratio=1.40 / aq=1:0.90
Language : English
Encoded date : UTC 2015-01-18 15:29:14
Tagged date : UTC 2015-01-18 15:30:37

Audio #1
ID : 2
Format : AAC
Format/Info : Advanced Audio Codec
Format profile : LC
Codec ID : 40
Duration : 1h 50mn
Bit rate mode : Variable
Bit rate : 128 Kbps
Maximum bit rate : 135 Kbps
Channel(s) : 2 channels
Channel positions : Front: L R
Sampling rate : 48.0 KHz
Compression mode : Lossy
Stream size : 101 MiB (9%)
Title : Dub
Language : Russian
Encoded date : UTC 2015-01-18 15:29:29
Tagged date : UTC 2015-01-18 15:30:37

Audio #2
ID : 3
Format : AAC
Format/Info : Advanced Audio Codec
Format profile : LC
Codec ID : 40
Duration : 1h 50mn
Bit rate mode : Variable
Bit rate : 128 Kbps
Maximum bit rate : 135 Kbps
Channel(s) : 2 channels
Channel positions : Front: L R
Sampling rate : 48.0 KHz
Compression mode : Lossy
Stream size : 101 MiB (9%)
Title : Original
Language : English
Encoded date : UTC 2015-01-18 15:30:10
Tagged date : UTC 2015-01-18 15:30:37

Text
ID : 4
Format : Timed Text
Muxing mode : sbtl
Codec ID : tx3g
Duration : 1h 42mn
Bit rate mode : Variable
Bit rate : 49 bps
Stream size : 37.3 KiB (0%)
Language : Russian
Encoded date : UTC 2015-01-18 15:30:36
Tagged date : UTC 2015-01-18 15:30:37


Трекер:  [ 18-Янв-2015 21:00 ]

  

Скачать .torrent

Размер .torrent файла 11 KB


Размер: 1.1 GB
Хэш (hash) релиза: 6ce7b061a843991b66f7d099578fd9751520c9b3

Еще никто не оставлял запись к записи скачать торрент [VIDEO] Холод в июле Cold in July . Будь первым!

!Обратная связь