#125 - Komi-San wa Komyushou Desu 125 02-16-2018
TakenS2-E112018-04-13

Скачать через торрент [VIDEO] 31 июня бесплатно русская версия torrent активатор

Статистика раздачи
Размер:  1.03 GB   |    Зарегистрирован:  3 года 3 месяца   |    .torrent скачан:  43 раза   |   
Раздают:  1  
   
загрузка...
 
Автор Сообщение

Galfimbul

avatar Galfimbul


31 июня

Год выпуска: 1978

Страна: СССР
Жанр: музыкальная сказка
Продолжительность: 2:10:27
Перевод: Не требуется
Cубтитры: нет
Оригинальная аудиодорожка: русский

Режиссер: Леонид Квинихидзе
В ролях: Наталья Трубникова, Николай Еременко, Владимир Зельдин, Владимир Этуш, Людмила Власова, Александр Годунов, Любовь Полищук, Игорь Ясулович, Марина Нудьга, Эммануил Геллер, Михаил Кокшенов, Владимир Сошальский
Описание: Фантастическая история любви художника, живущего в XXI веке и принцессы королевства Перадор, времен правления короля Артура.

Исходник (ссылка): [url]...3206515[/url]
Качество: DVDRip
Формат: AVI
Видео: 640x480 (1.33:1), 25 fps, XviD MPEG-4 ~990 kbps
Аудио: 48 kHz, MPEG Layer 3, 2 ch, ~128 kbps
Format : AVIFormat/Info : Audio Video InterleaveFile size : 1.03 GiBDuration : 2h 10mnOverall bit rate : 1 128 KbpsWriting application : VirtualDubModRus 1.5.10.2 (build 2542/release)Writing library : VirtualDub build 35491/release

VideoID : 0Format : MPEG-4 VisualFormat profile : Advanced [email protected] settings, BVOP : 2Format settings, QPel : NoFormat settings, GMC : No warppointsFormat settings, Matrix : Default (H.263)Muxing mode : Packed bitstreamCodec ID : XVIDCodec ID/Hint : XviDDuration : 2h 10mnBit rate : 990 KbpsWidth : 640 pixelsHeight : 480 pixelsDisplay aspect ratio : 4:3Frame rate : 25.000 fpsColor space : YUVChroma subsampling : 4:2:0Bit depth : 8 bitsScan type : ProgressiveCompression mode : LossyBits/(Pixel*Frame) : 0.129Stream size : 924 MiB (88%)Writing library : XviD 63

AudioID : 1Format : MPEG AudioFormat version : Version 1Format profile : Layer 3Mode : Joint stereoMode extension : MS StereoCodec ID : 55Codec ID/Hint : MP3Duration : 2h 10mnBit rate mode : ConstantBit rate : 128 KbpsChannel(s) : 2 channelsSampling rate : 48.0 KHzCompression mode : LossyStream size : 119 MiB (11%)Alignment : Split accross interleavesInterleave, duration : 40 ms (1.00 video frame)Interleave, preload duration : 500 ms


Трекер:  [ 18-Янв-2015 19:30 ]

  

Скачать .torrent

Размер .torrent файла 10 KB


Размер: 1.03 GB
Хэш (hash) релиза: 5e2ee958359bf1b8f3894dc27a62609e994e2af5

Торренты, похожие на [VIDEO] 31 июня скачать торрент

Форум Название Автор Размер S L Добавлен
Видео (Фильмы/Клипы) ·· [VIDEO] 31 июня (Леонид Квинихидзе) [1978, музыкальная сказка, DVDRip] [MP4, 800x] Galfimbul 10681915581019 MB 0 0 1421607130

21:52

18-Янв-15

Еще никто не оставлял запись к записи скачать торрент [VIDEO] 31 июня . Будь первым!

!Обратная связь