Thirteen | Hotel Artemis (2018) HDRip Xvid .mp4 megavideo Contraseña Gratis | 6 K Тихоокеанский рубеж 2 2018

Скачать через торрент [VIDEO] Красавец и чудовище бесплатно русская версия torrent активатор

Статистика раздачи
Размер:  402 MB   |    Зарегистрирован:  3 года 6 месяцев   |    .torrent скачан:  43 раза   |   
Раздают:  1  
   
загрузка...
 
Автор Сообщение

Galfimbul

avatar Galfimbul


Красавец и чудовище
Год выпуска: 2014
Страна: Россия
Жанр: комедия, мелодрама
Продолжительность: 01:44:00
Перевод: Не требуется
Русские субтитры: нет
Режиссер: Иван Криворучко мл.
В ролях: Вероника Пляшкевич, Алексей Анищенко, Артем Давидович, Валерия Шкирандо, Тамара Миронова, Анатолий Гурьев, Ирина Корниевич, Андрей Кривецкий, Андрей Карако, Анатолий Голуб, Олег Коц, Виталий Холодок, Валерий Кащеев, Диана Иванова, Анастасия Боброва, Инна Коляда
Описание: За словом в карман не лезет, себя в обиду не дает. За непримиримый характер, чумазое лицо и вечную телогрейку Варю называют «чудовищем». Впрочем, не такое уж Варя «чудовище». Просто какой тут лоск, если работаешь от зари до зари, а всю зарплату забирают мать-пьяница и ее непутевый муж? Да и рынок провинциального городка – не то место, где можно научиться хорошим манерам. Варя и сама уже не помнит о времени, когда носила косу, была любимицей отца и лучшей ученицей в классе. Отец умер, и жизнь сложилась так… как сложилась. Варя не жалуется и не унывает, но ровно до того дня, пока не оказывается без дома и без работы. Директор рынка выбрасывает Варю на улицу за то, что она отдавила ногу и нахамила важному клиенту – столичному бизнесмену, красавцу Ивану. А мать не собирается держать дома «дармоедку».
Качество: SATRip
Формат: MP4
Видео кодек: H.264
Аудио кодек: AAC
Видео: AVC, 480x272 (16/9), 25.000 fps, 437 Kbps (0.134 bit/pixel)
Аудио: AAC LC, 44.1 KHz, 1 ch, 96.0 Kbps

GeneralComplete name : D:\Torrents\Download\[VIDEO] Krasavets.i.chudovische.2014.SATRip.480x.aleksd72.mp4Format : MPEG-4Format profile : Base MediaCodec ID : isomFile size : 402 MiBDuration : 1h 44mnOverall bit rate mode : VariableOverall bit rate : 536 KbpsEncoded date : UTC 2015-01-03 19:33:46Tagged date : UTC 2015-01-03 19:33:46Writing application : Lavf56.10.100

VideoID : 1Format : AVCFormat/Info : Advanced Video CodecFormat profile : [email protected] settings, CABAC : NoFormat settings, ReFrames : 2 framesCodec ID : avc1Codec ID/Info : Advanced Video CodingDuration : 1h 44mnBit rate : 437 KbpsWidth : 480 pixelsHeight : 272 pixelsDisplay aspect ratio : 16:9Frame rate mode : ConstantFrame rate : 25.000 fpsColor space : YUVChroma subsampling : 4:2:0Bit depth : 8 bitsScan type : ProgressiveBits/(Pixel*Frame) : 0.134Stream size : 327 MiB (81%)Writing library : x264 core 142 r2479Encoding settings : cabac=0 / ref=2 / deblock=1:-1:-1 / analyse=0x1:0x131 / me=hex / subme=7 / psy=1 / psy_rd=1.00:0.10 / mixed_ref=0 / me_range=16 / chroma_me=1 / trellis=1 / 8x8dct=0 / cqm=0 / deadzone=21,11 / fast_pskip=1 / chroma_qp_offset=-3 / threads=3 / lookahead_threads=1 / sliced_threads=0 / nr=0 / decimate=1 / interlaced=0 / bluray_compat=0 / constrained_intra=0 / bframes=0 / weightp=0 / keyint=250 / keyint_min=25 / scenecut=40 / intra_refresh=0 / rc_lookahead=40 / rc=abr / mbtree=1 / bitrate=437 / ratetol=1.0 / qcomp=0.60 / qpmin=10 / qpmax=69 / qpstep=4 / vbv_maxrate=24000 / vbv_bufsize=24000 / nal_hrd=none / filler=0 / ip_ratio=1.40 / aq=1:1.00Encoded date : UTC 2015-01-03 19:33:46Tagged date : UTC 2015-01-03 19:33:46

AudioID : 2Format : AACFormat/Info : Advanced Audio CodecFormat profile : LCCodec ID : 40Duration : 1h 44mnDuration_LastFrame : -5msBit rate mode : VariableBit rate : 96.0 KbpsChannel(s) : 2 channelsChannel(s)_Original : 1 channelChannel positions : Front: CSampling rate : 44.1 KHzCompression mode : LossyStream size : 71.6 MiB (18%)Encoded date : UTC 2015-01-03 19:33:46Tagged date : UTC 2015-01-03 19:33:46


Трекер:  [ 13-Янв-2015 17:00 ]

  

Скачать .torrent

Размер .torrent файла 16 KB


Размер: 402 MB
Хэш (hash) релиза: dad5f192dae341941eadd192e5886b60f63ee0f1

Еще никто не оставлял запись к записи скачать торрент [VIDEO] Красавец и чудовище . Будь первым!

!Обратная связь