Naked Survival - Ausgezogen in die Wildnis | John Archer | Escolas e Ensino

Скачать через торрент [VIDEO] Разрешите тебя поцеловать... снова бесплатно русская версия torrent активатор

Статистика раздачи
Размер:  481 MB   |    Зарегистрирован:  3 года 6 месяцев   |    .torrent скачан:  39 раз   |   
Раздают:  1  
   
загрузка...
 
Автор Сообщение

Galfimbul

avatar Galfimbul


Разрешите тебя поцеловать... снова
Год выпуска: 2012
Страна: Россия
Жанр: комедия, мелодрама
Продолжительность: 01:52:00
Перевод: Не требуется
Русские субтитры: нет
Режиссер: Юрий Морозов
В ролях: Игорь Лифанов, Мария Куликова, Борис Щербаков, Виолетта Вакорина, Александр Ратников, Аполлинария Муравьёва, Алёна Корнева, Ирина Егорова, Константин Ужва, Ксения Баскакова, Анастасия Красильникова, Анна Ещенко, Наталья Колдашова, Юрий Морозов
Описание: Мы встречаемся с полюбившимися героями через три года, в новогоднюю ночь. Именно тогда разжалованный в майоры Григорий Власов намеревается сделать, наконец, предложение руки и сердца своей подруге Наталье. Но в самый ответственный момент звонит генерал и сообщает Власову две хорошие новости: ему возвращено звание подполковника, и его ждёт новый ответственный пост в Подмосковье. Власов в срочном порядке вылетает в Москву, так и не сделав предложения Наталье. А на месте выясняется, что командовать ему снова придётся молодыми строптивыми женщинами, да ещё и из непростых семей...
Качество: SATRip
Формат: MP4
Видео кодек: H.264
Аудио кодек: AAC
Видео: AVC, 480x272 (16/9), 25.000 fps, 512 Kbps (0.157 bit/pixel)
Аудио: AAC LC, 32.0 KHz, 1 ch, 96.0 Kbps

GeneralComplete name : D:\Torrents\Download\[VIDEO]Razreshite.tebia.potselovat.Snova.2012.SATRip.480x.aleksd72.mp4Format : MPEG-4Format profile : Base MediaCodec ID : isomFile size : 481 MiBDuration : 1h 52mnOverall bit rate mode : VariableOverall bit rate : 599 KbpsEncoded date : UTC 2014-10-23 22:27:59Tagged date : UTC 2014-10-23 22:27:59Writing application : Lavf56.1.100Copyright : aleksd72

VideoID : 1Format : AVCFormat/Info : Advanced Video CodecFormat profile : [email protected] settings, CABAC : NoFormat settings, ReFrames : 2 framesCodec ID : avc1Codec ID/Info : Advanced Video CodingDuration : 1h 52mnBit rate : 512 KbpsWidth : 480 pixelsHeight : 272 pixelsDisplay aspect ratio : 16:9Original display aspect rat : 16:9Frame rate mode : ConstantFrame rate : 25.000 fpsColor space : YUVChroma subsampling : 4:2:0Bit depth : 8 bitsScan type : ProgressiveBits/(Pixel*Frame) : 0.157Stream size : 413 MiB (86%)Writing library : x264 core 142 r2453Encoding settings : cabac=0 / ref=2 / deblock=1:-1:-1 / analyse=0x1:0x131 / me=hex / subme=7 / psy=1 / psy_rd=1.00:0.10 / mixed_ref=0 / me_range=16 / chroma_me=1 / trellis=1 / 8x8dct=0 / cqm=0 / deadzone=21,11 / fast_pskip=1 / chroma_qp_offset=-3 / threads=3 / lookahead_threads=1 / sliced_threads=0 / nr=0 / decimate=1 / interlaced=0 / bluray_compat=0 / constrained_intra=0 / bframes=0 / weightp=0 / keyint=250 / keyint_min=25 / scenecut=40 / intra_refresh=0 / rc_lookahead=40 / rc=abr / mbtree=1 / bitrate=512 / ratetol=1.0 / qcomp=0.60 / qpmin=10 / qpmax=69 / qpstep=4 / vbv_maxrate=24000 / vbv_bufsize=24000 / nal_hrd=none / filler=0 / ip_ratio=1.40 / aq=1:1.00Encoded date : UTC 2014-10-23 22:27:59Tagged date : UTC 2014-10-23 22:27:59

AudioID : 2Format : AACFormat/Info : Advanced Audio CodecFormat profile : LCCodec ID : 40Duration : 1h 52mnDuration_LastFrame : -8msBit rate : 96.0 KbpsChannel(s) : 2 channelsChannel(s)_Original : 1 channelChannel positions : Front: CSampling rate : 32.0 KHzCompression mode : LossyStream size : 64.6 MiB (13%)Encoded date : UTC 2014-10-23 22:27:59Tagged date : UTC 2014-10-23 22:27:59


Трекер:  [ 13-Янв-2015 16:30 ]

  

Скачать .torrent

Размер .torrent файла 19 KB


Размер: 481 MB
Хэш (hash) релиза: 9d1c71ee2e800388976b35fa94bd3eaac4b9d4be

Еще никто не оставлял запись к записи скачать торрент [VIDEO] Разрешите тебя поцеловать... снова . Будь первым!

!Обратная связь