Top Billboard Songs | 1x791 Acacias 38 | Hypnagogic (2015)

Скачать через торрент [VIDEO] Разрешите тебя поцеловать... отец невесты бесплатно русская версия torrent активатор

Статистика раздачи
Размер:  395 MB   |    Зарегистрирован:  3 года 6 месяцев   |    .torrent скачан:  38 раз   |   
Раздают:  1  
   
загрузка...
 
Автор Сообщение

Galfimbul

avatar Galfimbul


Разрешите тебя поцеловать... отец невесты
Год выпуска: 2014
Страна: Россия
Жанр: комедия
Продолжительность: 01:30:00
Перевод: Не требуется
Русские субтитры: нет
Режиссер: Петр Амелин
В ролях: Игорь Лифанов, Мария Куликова, Борис Щербаков, Михаил Трясоруков
Описание: Прошло три года после событий фильма «Разрешите тебя поцеловать…на свадьбе», в котором Власов с честью вышел из истории с «бывшей женой», проверкой его части и свадьбой. Теперь полковник Григорий Власов примерный отец семьянин и служака. Наташа и Григорий живут в своей квартире в Санкт-Петербурге и воспитывают чудесного трехлетнего мальчика Родиона. Генерал вышел на пенсию и с удовольствием живет на «генеральской даче» на берегу финского залива. Кругом идиллия.
Качество: SATRip
Формат: MP4
Видео кодек: H.264
Аудио кодек: AAC
Видео: AVC, 480x256 (16/9), 25.000 fps, 512 Kbps (0.167 bit/pixel)
Аудио: AAC LC, 32.0 KHz, 1 ch, 96.0 Kbps

GeneralComplete name : D:\Torrents\Download\[VIDEO]Razreshite.tebia.potselovat.Otets.nevesty.2014.SATRip.480x.aleksd72.mp4Format : MPEG-4Format profile : Base MediaCodec ID : isomFile size : 395 MiBDuration : 1h 30mnOverall bit rate mode : VariableOverall bit rate : 609 KbpsEncoded date : UTC 2014-10-23 22:20:01Tagged date : UTC 2014-10-23 22:20:01Writing application : Lavf56.1.100Copyright : aleksd72

VideoID : 1Format : AVCFormat/Info : Advanced Video CodecFormat profile : [email protected] settings, CABAC : NoFormat settings, ReFrames : 2 framesCodec ID : avc1Codec ID/Info : Advanced Video CodingDuration : 1h 30mnBit rate : 512 KbpsWidth : 480 pixelsHeight : 256 pixelsDisplay aspect ratio : 16:9Original display aspect rat : 16:9Frame rate mode : ConstantFrame rate : 25.000 fpsColor space : YUVChroma subsampling : 4:2:0Bit depth : 8 bitsScan type : ProgressiveBits/(Pixel*Frame) : 0.167Stream size : 332 MiB (84%)Writing library : x264 core 142 r2453Encoding settings : cabac=0 / ref=2 / deblock=1:-1:-1 / analyse=0x1:0x131 / me=hex / subme=7 / psy=1 / psy_rd=1.00:0.10 / mixed_ref=0 / me_range=16 / chroma_me=1 / trellis=1 / 8x8dct=0 / cqm=0 / deadzone=21,11 / fast_pskip=1 / chroma_qp_offset=-3 / threads=3 / lookahead_threads=1 / sliced_threads=0 / nr=0 / decimate=1 / interlaced=0 / bluray_compat=0 / constrained_intra=0 / bframes=0 / weightp=0 / keyint=250 / keyint_min=25 / scenecut=40 / intra_refresh=0 / rc_lookahead=40 / rc=abr / mbtree=1 / bitrate=512 / ratetol=1.0 / qcomp=0.60 / qpmin=10 / qpmax=69 / qpstep=4 / vbv_maxrate=24000 / vbv_bufsize=24000 / nal_hrd=none / filler=0 / ip_ratio=1.40 / aq=1:1.00Encoded date : UTC 2014-10-23 22:20:01Tagged date : UTC 2014-10-23 22:20:01

AudioID : 2Format : AACFormat/Info : Advanced Audio CodecFormat profile : LCCodec ID : 40Duration : 1h 30mnDuration_LastFrame : -16msBit rate : 96.0 KbpsChannel(s) : 2 channelsChannel(s)_Original : 1 channelChannel positions : Front: CSampling rate : 32.0 KHzCompression mode : LossyStream size : 60.2 MiB (15%)Encoded date : UTC 2014-10-23 22:20:01Tagged date : UTC 2014-10-23 22:20:01


Трекер:  [ 13-Янв-2015 16:00 ]

  

Скачать .torrent

Размер .torrent файла 16 KB


Размер: 395 MB
Хэш (hash) релиза: 29eb95c219850a3102485f142f82034c00be53f1

Еще никто не оставлял запись к записи скачать торрент [VIDEO] Разрешите тебя поцеловать... отец невесты . Будь первым!

!Обратная связь