Arts Martiaux | Das Dschungelbuch (2010) | Calon Sarjana

Скачать через торрент [VIDEO] Уик-Энд Weekend бесплатно русская версия torrent активатор

Статистика раздачи
Размер:  954 MB   |    Зарегистрирован:  3 года 6 месяцев   |    .torrent скачан:  49 раз   |   
Раздают:  1  
   
загрузка...
 
Автор Сообщение

Galfimbul

avatar Galfimbul


Уик-Энд
Weekend

Год выпуска: 2013
Страна: Россия (Вертикаль)
Жанр: Драма, детектив, криминал
Продолжительность: 01:35:47
Перевод: Не требуется
Cубтитры: Нет
Режиссер: Станислав Говорухин
В ролях: Максим Матвеев, Вячеслав Чепурченко, Виктор Сухоруков, Екатерина Гусева, Александр Домогаров, Татьяна Коновалова, Марина Орлова, Мария Тверитнева, Юлия Хлынина, Юлия Пересильд
Описание: Главное действующее лицо фильма — Игорь Лебедев — финансовый директор крупной корпорации. Он совершает убийство бухгалтера, который знал о его нечистых махинациях и пытался восстановить справедливость.

Качество: BDRip (Рип с WEB-DL 1080p)
Формат: MP4
Видео: AVC, 960x536 (16:9), 1243 kbps, 24.000 fps
Аудио: Русский, AAC, 2 ch, 48 kHz, 128 kbps [Original]
Из-за необычного, по мнению режиссёра, приёма фильма зрителем, Говорухин решил никогда больше не снимать кино. Станислава Сергеевича удивила реакция на фильм, зрители смеялись на сеансах. «Люди смеялись. Я не предполагал такой реакции. Я показал фильм в трёх аудиториях, случайных, чтобы посмотреть, как будут принимать. В том числе на „Кинотавре“ — реакция везде одинаковая. Когда я впервые услышал смех в зале, меня это удивило и обидело. Неожиданная реакция публики», — сказал режиссёр.
x264 [info]: frame I:846 Avg QP:15.13 size: 56602
x264 [info]: frame P:34817 Avg QP:18.73 size: 14808
x264 [info]: frame B:103730 Avg QP:22.75 size: 3266

x264 [total]: encoded 139393 frames, 7.99 fps, 1242.70 kb/s
General
Complete name : [VIDEO] Weekend.2013.WEB-DLRip.x264.960x(semen_52-TNC).mp4
Format : MPEG-4
Format profile : Base Media
Codec ID : isom
File size : 954 MiB
Duration : 1h 36mn
Overall bit rate mode : Variable
Overall bit rate : 1 379 Kbps
Movie name : [VIDEO] Weekend 2013 WEB-DLRip x264 960x(semen_52-TNC)
ContentType : Short Film
Encoded date : UTC 2015-01-10 18:03:33
Tagged date : UTC 2015-01-10 18:06:00
Writing application : MkvToMp4 version: 0.224 (x64)
Comment : Rip by semen_52-TNC

Video
ID : 1
Format : AVC
Format/Info : Advanced Video Codec
Format profile : [email protected]
Format settings, CABAC : Yes
Format settings, ReFrames : 8 frames
Codec ID : avc1
Codec ID/Info : Advanced Video Coding
Duration : 1h 36mn
Bit rate : 1 243 Kbps
Maximum bit rate : 11.0 Mbps
Width : 960 pixels
Height : 536 pixels
Display aspect ratio : 16:9
Frame rate mode : Constant
Frame rate : 24.000 fps
Color space : YUV
Chroma subsampling : 4:2:0
Bit depth : 8 bits
Scan type : Progressive
Bits/(Pixel*Frame) : 0.101
Stream size : 860 MiB (90%)
Writing library : x264 core 130 r2273 b3065e6
Encoding settings : cabac=1 / ref=8 / deblock=1:-3:-3 / analyse=0x3:0x133 / me=esa / subme=9 / psy=1 / psy_rd=1.00:0.00 / mixed_ref=1 / me_range=32 / chroma_me=1 / trellis=2 / 8x8dct=1 / cqm=0 / deadzone=21,11 / fast_pskip=0 / chroma_qp_offset=-2 / threads=12 / lookahead_threads=2 / sliced_threads=0 / nr=0 / decimate=1 / interlaced=0 / bluray_compat=0 / constrained_intra=0 / bframes=8 / b_pyramid=2 / b_adapt=2 / b_bias=0 / direct=1 / weightb=1 / open_gop=0 / weightp=2 / keyint=250 / keyint_min=25 / scenecut=40 / intra_refresh=0 / rc_lookahead=60 / rc=crf / mbtree=1 / crf=19.6 / qcomp=0.60 / qpmin=0 / qpmax=69 / qpstep=4 / ip_ratio=1.40 / aq=1:1.00
Language : English
Encoded date : UTC 2015-01-10 18:03:33
Tagged date : UTC 2015-01-10 18:04:25

Audio
ID : 2
Format : AAC
Format/Info : Advanced Audio Codec
Format profile : LC
Codec ID : 40
Duration : 1h 36mn
Bit rate mode : Variable
Bit rate : 128 Kbps
Maximum bit rate : 135 Kbps
Channel(s) : 2 channels
Channel positions : Front: L R
Sampling rate : 48.0 KHz
Compression mode : Lossy
Stream size : 88.6 MiB (9%)
Title : Original
Language : Russian
Encoded date : UTC 2015-01-10 18:03:47
Tagged date : UTC 2015-01-10 18:04:25


Трекер:  [ 10-Янв-2015 21:00 ]

  

Скачать .torrent

Размер .torrent файла 19 KB


Размер: 954 MB
Хэш (hash) релиза: 3a8b3300502bc51233d0901f32dc2b1478e06df2

Еще никто не оставлял запись к записи скачать торрент [VIDEO] Уик-Энд Weekend . Будь первым!

!Обратная связь