Shameless | ADD COMMENTS | Yes! Mr. Fashion

Скачать через торрент [MC] Muse - Live At Rome Olympic Stadium бесплатно русская версия torrent активатор

Статистика раздачи
Размер:  829 MB   |    Зарегистрирован:  3 года 6 месяцев   |    .torrent скачан:  49 раз   |   
Раздают:  1  
   
загрузка...
 
Автор Сообщение

Galfimbul

avatar Galfimbul


Muse - Live At Rome Olympic Stadium

Год выпуска: 2013

Страна: Великобритания
Жанр: Alternative Rock
Продолжительность: 01:35:46
Перевод: Не требуется
Cубтитры: нет
Оригинальная аудиодорожка: английский

Режиссер: Мэтт Аскем / Matt Askem
В ролях: Мэттью Беллами / Matthew Bellamy, Доминик Ховард / Dominic Howard, Крис Уолстенхолм / Chris Wolstenholme
Описание: On July 6th, multi-platinum-selling British band Muse took to the stage at Rome's Olympic Stadium in front of a capacity audience of more than 60,000 euphoric fans. This package showcases the most extravagant set built and spectacular stage show of any Muse tour to date. The band take the audience on a mesmerizing journey using pyrotechnics, expansive digital screens, and a troop of actors to accompany their epic playlist of 20 tracks, mixed in incredible surround sound, including hits from their most recent studio album The 2nd Law, as well as classics such as "Uprising," "Madness," "Supermassive Black Hole," "Starlight," "Time Is Running Out," and "Knights of Cydonia."
Доп. информация: Концерт «The Unsustainable Tour» с аудиторией более чем в 60 тысяч человек состоялся в июле 2013 года на легендарном итальянском стадионе Olympic Stadium в Риме. Шоу, с которым группа объехала все главные концертные площадки мира.
Треклист:
01. Intro
02. Supremacy
03. Panic Station
04. Plug In Baby
05. Resistance
06. Animals
07. Knights of Cydonia
08. Explorers
09. Hysteria
10. Feeling Good
11. Follow Me
12. Madness
13. Time is Running Out
14. Guiding Light
15. Undisclosed Desires
16. Supermassive Black Hole
17. Survival
18. The 2nd Law: Isolated System
19. Uprising
20. Starlight
Исходник (ссылка): [url]...4606052[/url]
Качество: BDRip
Формат: MP4
Видео: MPEG-4 AVC Video; 640x360; 16:9; 1080 kbps; 29,970 fps
Аудио: English; AAC 2.0 stereo; 48 kHz; 128 kbps VBR
GeneralFormat : MPEG-4Format profile : Base MediaCodec ID : isomFile size : 829 MiBDuration : 1h 35mnOverall bit rate mode : VariableOverall bit rate : 1 210 KbpsEncoded date : UTC 2015-01-10 05:06:53Tagged date : UTC 2015-01-10 05:06:53

VideoID : 1Format : AVCFormat/Info : Advanced Video CodecFormat profile : [email protected] settings, CABAC : YesFormat settings, ReFrames : 4 framesCodec ID : avc1Codec ID/Info : Advanced Video CodingDuration : 1h 35mnBit rate : 1 080 KbpsMaximum bit rate : 5 620 KbpsWidth : 640 pixelsHeight : 360 pixelsDisplay aspect ratio : 16:9Frame rate mode : ConstantFrame rate : 29.970 fpsColor space : YUVChroma subsampling : 4:2:0Bit depth : 8 bitsScan type : ProgressiveBits/(Pixel*Frame) : 0.156Stream size : 740 MiB (89%)Writing library : x264 core 140 r2377 1ca7bb9Encoding settings : cabac=1 / ref=3 / deblock=1:-3:-2 / analyse=0x3:0x133 / me=hex / subme=7 / psy=1 / psy_rd=1.00:0.15 / mixed_ref=1 / me_range=16 / chroma_me=1 / trellis=1 / 8x8dct=1 / cqm=0 / deadzone=21,11 / fast_pskip=1 / chroma_qp_offset=-3 / threads=6 / lookahead_threads=1 / sliced_threads=0 / nr=0 / decimate=1 / interlaced=0 / bluray_compat=0 / constrained_intra=0 / bframes=3 / b_pyramid=2 / b_adapt=2 / b_bias=0 / direct=1 / weightb=1 / open_gop=0 / weightp=2 / keyint=300 / keyint_min=29 / scenecut=40 / intra_refresh=0 / rc_lookahead=40 / rc=2pass / mbtree=1 / bitrate=1080 / ratetol=1.0 / qcomp=0.60 / qpmin=0 / qpmax=69 / qpstep=4 / cplxblur=20.0 / qblur=0.5 / vbv_maxrate=25000 / vbv_bufsize=25000 / nal_hrd=none / filler=0 / ip_ratio=1.40 / aq=1:1.00Encoded date : UTC 2015-01-09 17:20:18Tagged date : UTC 2015-01-10 05:07:13

AudioID : 2Format : AACFormat/Info : Advanced Audio CodecFormat profile : LCCodec ID : 67Duration : 1h 35mnBit rate mode : VariableBit rate : 125 KbpsMaximum bit rate : 129 KbpsChannel(s) : 2 channelsChannel positions : Front: L RSampling rate : 48.0 KHzCompression mode : LossyStream size : 85.9 MiB (10%)Language : EnglishEncoded date : UTC 2015-01-10 05:07:08Tagged date : UTC 2015-01-10 05:07:13

Menu00:00:00.000 : Intro00:01:11.204 : Supremacy00:06:32.792 : Panic Station00:09:50.156 : Plug In Baby00:14:17.957 : Resistance00:19:53.759 : Animals00:24:27.633 : Knights of Cydonia00:33:26.238 : Explorers00:39:20.758 : Hysteria00:44:41.913 : Feeling Good00:48:26.103 : Follow Me00:52:29.013 : Madness00:57:17.534 : Time is Running Out01:01:58.281 : Guiding Light01:06:24.280 : Undisclosed Desires01:10:34.497 : Supermassive Black Hole01:14:49.785 : Survival01:19:39.642 : The 2nd Law: Isolated System01:22:06.522 : Uprising01:27:50.031 : Starlight01:33:01.042 : Credits


Трекер:  [ 10-Янв-2015 20:30 ]

  

Скачать .torrent

Размер .torrent файла 16 KB


Размер: 829 MB
Хэш (hash) релиза: c7da9c46e8dbc0eb3d8541215a1034d94297fbe7

Еще никто не оставлял запись к записи скачать торрент [MC] Muse - Live At Rome Olympic Stadium . Будь первым!

!Обратная связь