GloryHole.Initiations.15.01.18.Nadia.Jay.XXX.720p.MP4-RARBG | 怦然心动 中英字幕 Flipped 2010 BD1080P X264 AAC English CHS ENG-虾狐影视 17 минут | I Love You Came Too Late

Скачать через торрент [VIDEO] Тупой и еще тупее Dumb & Dumber бесплатно русская версия torrent активатор

Статистика раздачи
Размер:  1.29 GB   |    Зарегистрирован:  3 года 6 месяцев   |    .torrent скачан:  60 раз   |   
Раздают:  1  
   
загрузка...
 
Автор Сообщение

Galfimbul

avatar Galfimbul


Dumb & DumberТупой и еще тупее


Год выпуска: 1994
Страна: США
Жанр: комедия, приключения
Продолжительность: 01:52:50
Перевод: Профессиональный (двухголосый, закадровый)
Режиссер: Питер Фаррелли (Peter Farrelly) | Бобби Фаррелли (Bobby Farrelly)

В ролях: Джим Керри (Jim Carrey) | Джефф Дэниелс (Jeff Daniels) | Лорен Холли (Lauren Holly) | Майк Старр (Mike Starr) | Карен Даффи (Karen Duffy)
Два полных придурка, Ллойд Крисмас и Харри Данн пытаются нагнать красивую девушку Мэри Суонсон, чтобы вручить ей потерянный ею чемоданчик-дипломат. Кретинам невдомек, что Мэри обронила его специально, в качестве выкупа по договоренности с бандитами, похитившими ее мужа.
Качество: [i]BDRip
([i][url=...1426788]BDRemux[/url])
Формат: MP4
Видео: AVC High L4.1, 960х536 (16:9), 1 523 Kbps, 23.976 fps
Аудио: AAC, 2 ch, 48 kHz, 108 Kbps[/i]

x264 [info]: frame I:1114  Avg QP:18.39  size: 68245
x264 [info]: frame P:34629 Avg QP:21.90  size: 17633
x264 [info]: frame B:126561 Avg QP:25.74  size:  4759
x264 [info]: consecutive B-frames:  1.3%  1.6%  4.7% 32.5% 15.8% 37.8%  3.0%  2.7%  0.7%
x264 [info]: mb I  I16..4:  7.9% 73.8% 18.3%
x264 [info]: mb P  I16..4:  0.7%  5.4%  1.0%  P16..4: 34.6% 35.4% 10.3%  0.0%  0.0%    skip:12.7%
x264 [info]: mb B  I16..4:  0.1%  0.6%  0.1%  B16..8: 38.5% 13.6%  1.7%  direct: 2.8%  skip:42.6%  L0:44.0% L1:48.3% BI: 7.7%
x264 [info]: 8x8 transform intra:75.8% inter:64.4%
x264 [info]: coded y,uvDC,uvAC intra: 84.4% 72.2% 36.1% inter: 16.8% 11.1% 0.8%
x264 [info]: i16 v,h,dc,p: 31% 30%  5% 34%
x264 [info]: i8 v,h,dc,ddl,ddr,vr,hd,vl,hu:  8%  6%  4% 11% 16% 16% 14% 12% 12%
x264 [info]: i4 v,h,dc,ddl,ddr,vr,hd,vl,hu: 14% 10%  6%  8% 14% 15% 12% 11% 11%
x264 [info]: i8c dc,h,v,p: 34% 27% 20% 19%
x264 [info]: Weighted P-Frames: Y:5.1% UV:1.6%
x264 [info]: ref P L0: 44.3% 12.4% 17.1%  5.4%  4.9%  3.4%  3.3%  1.6%  1.7%  1.3%  1.3%  1.0%  1.1%  1.1%  0.1%  0.0%
x264 [info]: ref B L0: 79.2%  8.6%  4.0%  2.0%  1.5%  1.2%  1.0%  0.6%  0.6%  0.5%  0.4%  0.3%  0.2%
x264 [info]: ref B L1: 94.7%  5.3%
x264 [info]: kb/s:1523.25
encoded 162304 frames, 11.24 fps, 1523.25 kb/s

General
Complete name               : Z:\Downloads\Dumb & Dumber.mp4
Format                      : MPEG-4
Format profile              : Base Media
Codec ID                    : isom
File size                   : 1.29 GiB
Duration                    : 1h 52mn
Overall bit rate mode       : Variable
Overall bit rate            : 1 639 Kbps
Movie name                  : Dumb & Dumber
ContentType                 : Short Film
Encoded date                : UTC 2015-01-07 20:04:17
Tagged date                 : UTC 2015-01-07 20:04:55
Writing application         : MkvToMp4 version: 0.224 (x64)
Cover                       : Yes
Comment                     : |TORCHDK|

Video
ID                          : 1
Format                      : AVC
Format/Info                 : Advanced Video Codec
Format profile              : [email protected]
Format settings, CABAC      : Yes
Format settings, ReFrames   : 14 frames
Codec ID                    : avc1
Codec ID/Info               : Advanced Video Coding
Duration                    : 1h 52mn
Bit rate                    : 1 523 Kbps
Maximum bit rate            : 6 828 Kbps
Width                       : 960 pixels
Height                      : 536 pixels
Display aspect ratio        : 16:9
Frame rate mode             : Constant
Frame rate                  : 23.976 fps
Color space                 : YUV
Chroma subsampling          : 4:2:0
Bit depth                   : 8 bits
Scan type                   : Progressive
Bits/(Pixel*Frame)          : 0.123
Stream size                 : 1.20 GiB (93%)
Writing library             : x264 core 130 r2273 b3065e6
Encoding settings           : cabac=1 / ref=14 / deblock=1:-2:-1 / analyse=0x3:0x113 / me=umh / subme=11 / psy=1 / psy_rd=1.00:0.00 / mixed_ref=1 / me_range=48 / chroma_me=1 / trellis=2 / 8x8dct=1 / cqm=0 / deadzone=21,11 / fast_pskip=1 / chroma_qp_offset=-2 / threads=12 / lookahead_threads=2 / sliced_threads=0 / nr=0 / decimate=1 / interlaced=0 / bluray_compat=0 / constrained_intra=0 / bframes=8 / b_pyramid=2 / b_adapt=2 / b_bias=0 / direct=1 / weightb=1 / open_gop=0 / weightp=2 / keyint=250 / keyint_min=23 / scenecut=40 / intra_refresh=0 / rc_lookahead=40 / rc=crf / mbtree=1 / crf=20.3 / qcomp=0.60 / qpmin=0 / qpmax=69 / qpstep=4 / ip_ratio=1.40 / aq=1:1.00
Language                    : English
Encoded date                : UTC 2015-01-07 20:04:17
Tagged date                 : UTC 2015-01-07 20:04:34

Audio
ID                          : 2
Format                      : AAC
Format/Info                 : Advanced Audio Codec
Format profile              : LC
Codec ID                    : 40
Duration                    : 1h 52mn
Bit rate mode               : Variable
Bit rate                    : 108 Kbps
Maximum bit rate            : 208 Kbps
Channel(s)                  : 2 channels
Channel positions           : Front: L R
Sampling rate               : 48.0 KHz
Compression mode            : Lossy
Stream size                 : 87.2 MiB (7%)
Language                    : Russian
Encoded date                : UTC 2015-01-07 20:04:30
Tagged date                 : UTC 2015-01-07 20:04:34


Трекер:  [ 10-Янв-2015 05:00 ]

  

Скачать .torrent

Размер .torrent файла 13 KB


Размер: 1.29 GB
Хэш (hash) релиза: fcd37865672108f831892273caa7f064d8450c92

Еще никто не оставлял запись к записи скачать торрент [VIDEO] Тупой и еще тупее Dumb & Dumber . Будь первым!

!Обратная связь