the.handmaids.tale.s01e03.1080p.webrip.x264-morose.srt | 19401-19500 | Yayaying Rhat...

Скачать через торрент [VIDEO] Один дома 2: Затерянный в Нью-Йорке Home Alone 2: Lost in New York бесплатно русская версия torrent активатор

Статистика раздачи
Размер:  1.54 GB   |    Зарегистрирован:  3 года 6 месяцев   |    .torrent скачан:  102 раза   |   
Раздают:  1  
   
загрузка...
 
Автор Сообщение

Galfimbul

avatar Galfimbul


Home Alone 2: Lost in New YorkОдин дома 2: Затерянный в Нью-Йорке


Год выпуска: 1992
Страна: США
Жанр: комедия, приключения, семейный
Продолжительность: 02:00:01
Перевод: Профессиональный (многоголосый закадровый)
Режиссер: Крис Коламбус | Chris Columbus

В ролях: Маколей Калкин (Macaulay Culkin) | Джо Пеши (Joe Pesci) | Дэниел Стерн (Daniel Stern) | Кэтрин О’Хара (Catherine O'Hara) | Джон Хёрд (John Heard)
Самый маленький герой Америки устраивает большой переполох в Нью-Йорке! Кевин МакКалистер вернулся! Но теперь он один не дома, а в Нью-Йорке и у него достаточно денег и кредитных карточек, чтобы превратить Большое Яблоко в собственную площадку для игр.
Качество: [i]BDRip
([i][url=...2441382]BDRemux[/url])
Формат: MP4
Видео: AVC High L4.1, 960х512 (1.85:1), 1 722 Kbps, 23.976 fps
Аудио: AAC, 2 ch, 48 kHz, 101 Kbps[/i]

x264 [info]: frame I:1528  Avg QP:16.39  size: 92602
x264 [info]: frame P:39791 Avg QP:20.43  size: 23443
x264 [info]: frame B:131341 Avg QP:24.65  size:  3625
x264 [info]: consecutive B-frames:  2.3%  3.7% 10.6% 21.8% 25.6% 28.5%  3.2%  1.4%  1.1%  0.8%  0.4%  0.3%  0.1%  0.1%  0.1%  0.1%
x264 [info]: mb I  I16..4:  6.1% 70.6% 23.2%
x264 [info]: mb P  I16..4:  0.5%  5.0%  1.1%  P16..4: 32.4% 38.0% 14.2%  0.0%  0.0%    skip: 8.9%
x264 [info]: mb B  I16..4:  0.0%  0.4%  0.1%  B16..8: 37.0% 14.7%  2.1%  direct: 2.2%  skip:43.4%  L0:39.3% L1:50.1% BI:10.5%
x264 [info]: 8x8 transform intra:75.2% inter:62.4%
x264 [info]: coded y,uvDC,uvAC intra: 89.2% 75.3% 41.3% inter: 16.5% 9.3% 0.8%
x264 [info]: i16 v,h,dc,p: 40% 15%  5% 40%
x264 [info]: i8 v,h,dc,ddl,ddr,vr,hd,vl,hu:  9%  7%  5% 11% 16% 15% 14% 12% 12%
x264 [info]: i4 v,h,dc,ddl,ddr,vr,hd,vl,hu: 12%  8%  5% 10% 15% 15% 13% 12% 12%
x264 [info]: i8c dc,h,v,p: 32% 26% 22% 20%
x264 [info]: Weighted P-Frames: Y:3.1% UV:0.9%
x264 [info]: ref P L0: 51.8% 12.6% 15.3%  4.2%  4.1%  2.8%  2.9%  1.3%  1.5%  1.1%  1.2%  1.1%  0.2%  0.0%
x264 [info]: ref B L0: 85.7%  7.5%  2.4%  1.2%  0.9%  0.7%  0.6%  0.4%  0.3%  0.2%  0.1%
x264 [info]: ref B L1: 94.5%  5.5%
x264 [info]: kb/s:1722.42
encoded 172660 frames, 3.09 fps, 1722.42 kb/s

General
Complete name               : Z:\Downloads\Home Alone 2 Lost in New York.mp4
Format                      : MPEG-4
Format profile              : Base Media
Codec ID                    : isom
File size                   : 1.54 GiB
Duration                    : 2h 0mn
Overall bit rate mode       : Variable
Overall bit rate            : 1 832 Kbps
Movie name                  : Home Alone 2 Lost in New York
ContentType                 : Short Film
Encoded date                : UTC 2015-01-09 18:31:43
Tagged date                 : UTC 2015-01-09 18:32:24
Writing application         : MkvToMp4 version: 0.224 (x64)
Cover                       : Yes
Comment                     : |TORCHDK|

Video
ID                          : 1
Format                      : AVC
Format/Info                 : Advanced Video Codec
Format profile              : [email protected]
Format settings, CABAC      : Yes
Format settings, ReFrames   : 12 frames
Codec ID                    : avc1
Codec ID/Info               : Advanced Video Coding
Duration                    : 2h 0mn
Bit rate                    : 1 722 Kbps
Maximum bit rate            : 13.8 Mbps
Width                       : 960 pixels
Height                      : 512 pixels
Display aspect ratio        : 1.85:1
Frame rate mode             : Constant
Frame rate                  : 23.976 fps
Color space                 : YUV
Chroma subsampling          : 4:2:0
Bit depth                   : 8 bits
Scan type                   : Progressive
Bits/(Pixel*Frame)          : 0.146
Stream size                 : 1.44 GiB (94%)
Writing library             : x264 core 130 r2273 b3065e6
Encoding settings           : cabac=1 / ref=12 / deblock=1:-2:-1 / analyse=0x3:0x113 / me=umh / subme=11 / psy=1 / psy_rd=1.00:0.00 / mixed_ref=1 / me_range=48 / chroma_me=1 / trellis=2 / 8x8dct=1 / cqm=0 / deadzone=21,11 / fast_pskip=1 / chroma_qp_offset=-2 / threads=12 / lookahead_threads=3 / sliced_threads=0 / nr=0 / decimate=1 / interlaced=0 / bluray_compat=0 / constrained_intra=0 / bframes=15 / b_pyramid=2 / b_adapt=2 / b_bias=0 / direct=1 / weightb=1 / open_gop=0 / weightp=2 / keyint=250 / keyint_min=23 / scenecut=40 / intra_refresh=0 / rc_lookahead=40 / rc=crf / mbtree=1 / crf=19.2 / qcomp=0.60 / qpmin=0 / qpmax=69 / qpstep=4 / ip_ratio=1.40 / aq=1:1.00
Language                    : English
Encoded date                : UTC 2015-01-09 18:31:43
Tagged date                 : UTC 2015-01-09 18:32:02

Audio
ID                          : 2
Format                      : AAC
Format/Info                 : Advanced Audio Codec
Format profile              : LC
Codec ID                    : 40
Duration                    : 2h 0mn
Bit rate mode               : Variable
Bit rate                    : 101 Kbps
Maximum bit rate            : 211 Kbps
Channel(s)                  : 2 channels
Channel positions           : Front: L R
Sampling rate               : 48.0 KHz
Compression mode            : Lossy
Stream size                 : 87.0 MiB (6%)
Language                    : Russian
Encoded date                : UTC 2015-01-09 18:31:57
Tagged date                 : UTC 2015-01-09 18:32:02


Трекер:  [ 09-Янв-2015 22:00 ]

  

Скачать .torrent

Размер .torrent файла 16 KB


Размер: 1.54 GB
Хэш (hash) релиза: ef4148217b6c9298505515753c20e9dee0336f30

Еще никто не оставлял запись к записи скачать торрент [VIDEO] Один дома 2: Затерянный в Нью-Йорке Home Alone 2: Lost in New York . Будь первым!

!Обратная связь