All the Light We Cannot See | Juin 2013 (1223) | Episode 26- BB2 Ep #26

Скачать через торрент [VIDEO] Один Дома Home Alone бесплатно русская версия torrent активатор

Статистика раздачи
Размер:  1.08 GB   |    Зарегистрирован:  3 года 6 месяцев   |    .torrent скачан:  132 раза   |   
Раздают:  1  
   
загрузка...
 
Автор Сообщение

Galfimbul

avatar Galfimbul


Home AloneОдин дома


Год выпуска: 1990
Страна: США
Жанр: комедия, семейный
Продолжительность: 01:42:54
Перевод: Профессиональный (многоголосый закадровый)
Режиссер: Крис Коламбус | Chris Columbus

В ролях: Маколей Калкин (Macaulay Culkin) | Джо Пеши (Joe Pesci) | Дэниел Стерн (Daniel Stern) | Кэтрин О’Хара (Catherine O'Hara) | Джон Хёрд (John Heard)
Американское семейство отправляется из Чикаго в Европу, но в спешке сборов бестолковые родители забывают дома… одного из своих детей. Юное создание, однако, не теряется и демонстрирует чудеса изобретательности. И когда в дом залезают грабители, им приходится не раз пожалеть о встрече с милым крошкой.
Качество: BDRip ([i][url=...4138259]BDRemux[/url])
Формат: MP4
Видео: AVC High L4.1, 960х512 (1.85:1), 1 359 Kbps, 23.976 fps
Аудио: AAC, 2 ch, 48 kHz, 132 Kbps[/i]

x264 [info]: frame I:1307  Avg QP:16.71  size: 77436
x264 [info]: frame P:29101 Avg QP:20.04  size: 17146
x264 [info]: frame B:117623 Avg QP:24.13  size:  3813
x264 [info]: consecutive B-frames:  1.5%  1.3%  5.5% 13.5% 15.2% 51.8%  7.3%  1.8%  2.0%
x264 [info]: mb I  I16..4:  5.8% 79.2% 15.0%
x264 [info]: mb P  I16..4:  0.6%  5.4%  0.9%  P16..4: 34.8% 37.0% 10.8%  0.0%  0.0%    skip:10.4%
x264 [info]: mb B  I16..4:  0.1%  0.5%  0.1%  B16..8: 38.2% 13.3%  1.4%  direct: 2.3%  skip:44.1%  L0:44.5% L1:48.2% BI: 7.3%
x264 [info]: 8x8 transform intra:78.5% inter:65.6%
x264 [info]: coded y,uvDC,uvAC intra: 89.1% 78.2% 45.6% inter: 14.5% 11.9% 0.8%
x264 [info]: i16 v,h,dc,p: 46% 12%  5% 37%
x264 [info]: i8 v,h,dc,ddl,ddr,vr,hd,vl,hu:  8%  7%  4% 11% 17% 15% 14% 12% 12%
x264 [info]: i4 v,h,dc,ddl,ddr,vr,hd,vl,hu: 11%  7%  4%  9% 16% 16% 14% 12% 12%
x264 [info]: i8c dc,h,v,p: 34% 25% 21% 20%
x264 [info]: Weighted P-Frames: Y:4.8% UV:1.7%
x264 [info]: ref P L0: 45.1% 12.5% 18.5%  5.5%  5.3%  3.4%  3.5%  1.6%  1.7%  1.3%  1.5%  0.2%  0.0%
x264 [info]: ref B L0: 75.9% 10.7%  5.0%  2.5%  1.8%  1.5%  1.2%  0.8%  0.4%  0.2%
x264 [info]: ref B L1: 93.3%  6.7%
x264 [info]: kb/s:1358.77
encoded 148031 frames, 14.14 fps, 1358.77 kb/s

General
Complete name               : Z:\Downloads\Home Alone.mp4
Format                      : MPEG-4
Format profile              : Base Media
Codec ID                    : isom
File size                   : 1.08 GiB
Duration                    : 1h 42mn
Overall bit rate mode       : Variable
Overall bit rate            : 1 498 Kbps
Movie name                  : Home Alone
ContentType                 : Short Film
Encoded date                : UTC 2015-01-07 14:01:18
Tagged date                 : UTC 2015-01-07 14:01:53
Writing application         : MkvToMp4 version: 0.224 (x64)
Cover                       : Yes
Comment                     : |TORCHDK|

Video
ID                          : 1
Format                      : AVC
Format/Info                 : Advanced Video Codec
Format profile              : [email protected]
Format settings, CABAC      : Yes
Format settings, ReFrames   : 11 frames
Codec ID                    : avc1
Codec ID/Info               : Advanced Video Coding
Duration                    : 1h 42mn
Bit rate                    : 1 359 Kbps
Maximum bit rate            : 8 321 Kbps
Width                       : 960 pixels
Height                      : 512 pixels
Display aspect ratio        : 1.85:1
Frame rate mode             : Constant
Frame rate                  : 23.976 fps
Color space                 : YUV
Chroma subsampling          : 4:2:0
Bit depth                   : 8 bits
Scan type                   : Progressive
Bits/(Pixel*Frame)          : 0.115
Stream size                 : 1 000 MiB (91%)
Writing library             : x264 core 130 r2273 b3065e6
Encoding settings           : cabac=1 / ref=11 / deblock=1:-2:-1 / analyse=0x3:0x113 / me=umh / subme=11 / psy=1 / psy_rd=1.00:0.00 / mixed_ref=1 / me_range=48 / chroma_me=1 / trellis=2 / 8x8dct=1 / cqm=0 / deadzone=21,11 / fast_pskip=1 / chroma_qp_offset=-2 / threads=12 / lookahead_threads=2 / sliced_threads=0 / nr=0 / decimate=1 / interlaced=0 / bluray_compat=0 / constrained_intra=0 / bframes=8 / b_pyramid=2 / b_adapt=2 / b_bias=0 / direct=1 / weightb=1 / open_gop=0 / weightp=2 / keyint=250 / keyint_min=23 / scenecut=40 / intra_refresh=0 / rc_lookahead=40 / rc=crf / mbtree=1 / crf=19.2 / qcomp=0.60 / qpmin=0 / qpmax=69 / qpstep=4 / ip_ratio=1.40 / aq=1:1.00
Language                    : English
Encoded date                : UTC 2015-01-07 14:01:18
Tagged date                 : UTC 2015-01-07 14:01:33

Audio
ID                          : 2
Format                      : AAC
Format/Info                 : Advanced Audio Codec
Format profile              : LC
Codec ID                    : 40
Duration                    : 1h 42mn
Bit rate mode               : Variable
Bit rate                    : 132 Kbps
Maximum bit rate            : 203 Kbps
Channel(s)                  : 2 channels
Channel positions           : Front: L R
Sampling rate               : 48.0 KHz
Compression mode            : Lossy
Stream size                 : 96.8 MiB (9%)
Language                    : Russian
Encoded date                : UTC 2015-01-07 14:01:29
Tagged date                 : UTC 2015-01-07 14:01:33


Трекер:  [ 07-Янв-2015 18:30 ]

  

Скачать .torrent

Размер .torrent файла 11 KB


Размер: 1.08 GB
Хэш (hash) релиза: d25d4a74d5e3184ad411afb916b9cc7222c98322

Еще никто не оставлял запись к записи скачать торрент [VIDEO] Один Дома Home Alone . Будь первым!

!Обратная связь