Gaya Hijab Mulan Jameela Ini Dibanjiri Protes Warganet | Dok Ruk Rim Tang | HDBits | HDB | HD | 2017 Review

Скачать через торрент [VIDEO] Интервью The Interview бесплатно русская версия torrent активатор

Статистика раздачи
Размер:  903 MB   |    Зарегистрирован:  3 года 6 месяцев   |    .torrent скачан:  57 раз   |   
Раздают:  1  
   
загрузка...
 
Автор Сообщение

Galfimbul

avatar Galfimbul


The InterviewИнтервью


Год выпуска: 2014
Страна: США
Жанр: боевик, комедия
Продолжительность: 01:52:11
Перевод: Профессиональный (двухголосый, закадровый) [Студия Пиратского Дубляжа]
Режиссер: Эван Голдберг | Evan Goldberg, Сет Роген | Seth Rogen

В ролях: Джеймс Франко (James Franco) | Сет Роген (Seth Rogen) | Рэндолл Парк (Randall Park) | Лиззи Каплан (Lizzy Caplan) | Диана Банг (Diana Bang)
Дэйв — фантастически талантливый журналист популярного ток-шоу, продюсирует которое его лучший друг Аарон. Друзья, давно мечтавшие сделать что-то по-настоящему значимое, решают взять интервью у северокорейского диктатора Ким Чен Ына. Вскоре к ним обращается ЦРУ, которое просит наших героев ни много ни мало — убить Кима. Так начинается веселая история о двух наименее квалифицированных наемных убийцах в истории человечества…
Качество: WEB-DLRip ([i][url=...4902799]WEB-DLRip 720p[/url])
Формат: MP4
Видео: AVC High L4.1, 960х392 (2.40:1), 985 Kbps, 23.976 fps
Аудио: AAC, 2 ch, 48 kHz, 132 Kbps[/i]

x264 [info]: frame I:2437  Avg QP:14.25  size: 37142
x264 [info]: frame P:48126 Avg QP:17.74  size:  9950
x264 [info]: frame B:110812 Avg QP:21.57  size:  2338
x264 [info]: consecutive B-frames:  4.2%  4.9% 23.7% 67.2%
x264 [info]: mb I  I16..4: 13.4% 63.1% 23.5%
x264 [info]: mb P  I16..4:  4.0%  7.8%  1.3%  P16..4: 37.1% 18.7% 10.1%  0.0%  0.0%    skip:21.0%
x264 [info]: mb B  I16..4:  0.4%  0.7%  0.1%  B16..8: 36.5%  6.7%  1.6%  direct: 2.1%  skip:51.9%  L0:39.7% L1:51.5% BI: 8.8%
x264 [info]: 8x8 transform intra:59.9% inter:60.6%
x264 [info]: coded y,uvDC,uvAC intra: 53.5% 63.7% 36.6% inter: 11.1% 12.8% 1.7%
x264 [info]: i16 v,h,dc,p: 49% 21%  8% 22%
x264 [info]: i8 v,h,dc,ddl,ddr,vr,hd,vl,hu: 20% 13% 15%  6%  9% 10%  9%  9% 10%
x264 [info]: i4 v,h,dc,ddl,ddr,vr,hd,vl,hu: 20% 13%  8%  7% 11% 11% 11%  9% 10%
x264 [info]: i8c dc,h,v,p: 45% 24% 21% 10%
x264 [info]: Weighted P-Frames: Y:1.2% UV:0.4%
x264 [info]: ref P L0: 64.4% 10.7% 17.0%  7.8%  0.1%
x264 [info]: ref B L0: 88.4%  9.2%  2.4%
x264 [info]: ref B L1: 93.4%  6.6%
x264 [info]: kb/s:984.62
encoded 161375 frames, 60.83 fps, 984.62 kb/s

General
Complete name               : Z:\Downloads\The Interview.mp4
Format                      : MPEG-4
Format profile              : Base Media
Codec ID                    : isom
File size                   : 903 MiB
Duration                    : 1h 52mn
Overall bit rate mode       : Variable
Overall bit rate            : 1 125 Kbps
Movie name                  : The Interview
ContentType                 : Short Film
Encoded date                : UTC 2015-01-07 03:08:29
Tagged date                 : UTC 2015-01-07 03:08:58
Writing application         : MkvToMp4 version: 0.224 (x64)
Cover                       : Yes
Comment                     : |TORCHDK|

Video
ID                          : 1
Format                      : AVC
Format/Info                 : Advanced Video Codec
Format profile              : [email protected]
Format settings, CABAC      : Yes
Format settings, ReFrames   : 4 frames
Codec ID                    : avc1
Codec ID/Info               : Advanced Video Coding
Duration                    : 1h 52mn
Bit rate                    : 985 Kbps
Maximum bit rate            : 5 302 Kbps
Width                       : 960 pixels
Height                      : 392 pixels
Display aspect ratio        : 2.40:1
Frame rate mode             : Constant
Frame rate                  : 23.976 fps
Color space                 : YUV
Chroma subsampling          : 4:2:0
Bit depth                   : 8 bits
Scan type                   : Progressive
Bits/(Pixel*Frame)          : 0.109
Stream size                 : 790 MiB (87%)
Writing library             : x264 core 130 r2273 b3065e6
Encoding settings           : cabac=1 / ref=3 / deblock=1:-2:-1 / analyse=0x3:0x113 / me=umh / subme=9 / psy=1 / psy_rd=1.00:0.00 / mixed_ref=1 / me_range=32 / chroma_me=1 / trellis=2 / 8x8dct=1 / cqm=0 / deadzone=21,11 / fast_pskip=1 / chroma_qp_offset=-2 / threads=12 / lookahead_threads=1 / sliced_threads=0 / nr=0 / decimate=1 / interlaced=0 / bluray_compat=0 / constrained_intra=0 / bframes=3 / b_pyramid=2 / b_adapt=2 / b_bias=0 / direct=1 / weightb=1 / open_gop=0 / weightp=2 / keyint=250 / keyint_min=23 / scenecut=40 / intra_refresh=0 / rc_lookahead=40 / rc=crf / mbtree=1 / crf=19.0 / qcomp=0.60 / qpmin=0 / qpmax=69 / qpstep=4 / ip_ratio=1.40 / aq=1:1.00
Language                    : English
Encoded date                : UTC 2015-01-07 03:08:29
Tagged date                 : UTC 2015-01-07 03:08:43

Audio
ID                          : 2
Format                      : AAC
Format/Info                 : Advanced Audio Codec
Format profile              : LC
Codec ID                    : 40
Duration                    : 1h 52mn
Bit rate mode               : Variable
Bit rate                    : 132 Kbps
Maximum bit rate            : 193 Kbps
Channel(s)                  : 2 channels
Channel positions           : Front: L R
Sampling rate               : 48.0 KHz
Compression mode            : Lossy
Stream size                 : 106 MiB (12%)
Language                    : Russian
Encoded date                : UTC 2015-01-07 03:08:39
Tagged date                 : UTC 2015-01-07 03:08:43


Трекер:  [ 07-Янв-2015 07:00 ]

  

Скачать .torrent

Размер .torrent файла 18 KB


Размер: 903 MB
Хэш (hash) релиза: 5c06995cfb15eabd424742df39777f205e8b5f35

Еще никто не оставлял запись к записи скачать торрент [VIDEO] Интервью The Interview . Будь первым!

!Обратная связь