The Asterisk War | Calendar | Les derniers hommes d'Alep 2017 FRENCH HDTV 720p x264

Скачать через торрент [VIDEO] Агент 117 OSS 117: Le Caire, nid despions бесплатно русская версия torrent активатор

Статистика раздачи
Размер:  574 MB   |    Зарегистрирован:  3 года 6 месяцев   |    .torrent скачан:  52 раза   |   
Раздают:  1  
   
загрузка...
 
Автор Сообщение

Galfimbul

avatar Galfimbul


Агент 117: Каир, гнездо шпионов / OSS 117: Le Caire, nid d'espions
«Вооружен и очень гламурен!»

Год выпуска: 2006
Страна: Франция
Жанр: комедия, приключения, экшен
Продолжительность: 01:39:02
Перевод: Профессиональный (дублированный)
Cубтитры: нет
Режиссер: Мишель Хазанавичус / Michel Hazanavicius
В ролях: Жан Дюжарден, Беренис Бежо, Оре Атика, Филипп Лефевр, Константин Александров, Клод Броссе, Франсуа Дамиенс и др.

Описание: Египет, 1955-й год. Каир буквально переполнен шпионами всех мастей. Никто никому не доверяет, все плетут интриги: англичане, французы, русские, семья свергнутого короля Фарука, мечтающего вновь взобраться на трон, и «Орлы Хеопса» – религиозная секта, которая рвется к власти.Чтобы удержать ситуацию под контролем и навести порядок, президент Французской республики Рене Коти посылает туда своего лучшего сотрудника – Юбера Бониссёра де ля Бат, известного как агент 117...
Доп. информация СЭМПЛ

6.676 (2 690) 7.1 (11 623)

Качество: DVDRip
Формат: MP4
Видео: XviD, 640x272 (2.35:1), 679 kbps, 23.976 fps
Аудио: русский [DUB] AAC, 2ch, 48.0 kHz, 128 kbps
ОбщееПолное имя : Agent117.mp4Формат : MPEG-4Профиль формата : Base Media / Version 2Идентификатор кодека : mp42Размер файла : 574 МбайтПродолжительность : 1 ч. 39 м.Режим общего битрейта : ПеременныйОбщий поток : 811 Кбит/сек

ВидеоИдентификатор : 201Формат : MPEG-4 VisualПрофиль формата : Advanced [email protected]Параметр BVOP формата : ДаПараметр QPel формата : НетПараметр GMC формата : Без точки переходаПараметр матрицы формата : Default (H.263)Идентификатор кодека : 20Продолжительность : 1 ч. 39 м.Вид битрейта : ПеременныйБитрейт : 679 Кбит/секМаксимальный битрейт : 8178 Кбит/секШирина : 640 пикселейВысота : 272 пикселяСоотношение сторон : 2,35:1Режим частоты кадров : ПостоянныйЧастота кадров : 23,976 кадра/секЦветовое пространство : YUVСубдискретизация насыщенности : 4:2:0Битовая глубина : 8 битТип развёртки : ПрогрессивнаяМетод сжатия : С потерямиБит/(Пиксели*Кадры) : 0.163Размер потока : 481 Мбайт (84%)Библиотека кодирования : XviD 1.2.1 (UTC 2008-12-04)

АудиоИдентификатор : 101Формат : AACФормат/Информация : Advanced Audio CodecПрофиль формата : LCИдентификатор кодека : 40Продолжительность : 1 ч. 39 м.Вид битрейта : ПеременныйБитрейт : 128 Кбит/секМаксимальный битрейт : 172 Кбит/секКаналы : 2 каналаРасположение каналов : Front: L RЧастота : 48,0 КГцМетод сжатия : С потерямиРазмер потока : 90,6 Мбайт (16%)


Трекер:  [ 06-Янв-2015 19:30 ]

  

Скачать .torrent

Размер .torrent файла 45 KB


Размер: 574 MB
Хэш (hash) релиза: 1d9b94bab5ba299e9d015bbdeaed40462da77416

Еще никто не оставлял запись к записи скачать торрент [VIDEO] Агент 117 OSS 117: Le Caire, nid despions . Будь первым!

!Обратная связь