A Scandall | мистерия | risingflamz

Скачать через торрент [VIDEO] Тренер Картер Coach Carter бесплатно русская версия torrent активатор

Статистика раздачи
Размер:  1.92 GB   |    Зарегистрирован:  3 года 7 месяцев   |    .torrent скачан:  64 раза   |   
Раздают:  1  
   
загрузка...
 
Автор Сообщение

Galfimbul

avatar Galfimbul


Тренер Картер
Coach Carter

Год выпуска: 2005
Страна: США, Германия (Coach Carter, MMDP Munich Movie Development & Production GmbH & Co. Project KG, MTV Films, Tollin/Robbins Productions)
Жанр: Драма, спорт
Продолжительность: 02:16:20
Перевод: Профессиональный (многоголосый, закадровый)
Оригинальная дорожка: Английский
Cубтитры: Русские, полные, отключаемые
Режиссер: Томас Картер / Thomas Carter
В ролях: Сэмюэл Л. Джексон, Роб Браун, Роберт Ричард, Рик Гонзалез, Энтвон Тэннер, Ченнинг Татум, Ашанти, Тексас Бэттл, Дениз Дауз, Дэбби Морган, Винсент Лареска, Октавия Спенсер, Соня Эдди, Гвен МакГи, Пол Рэй, Эдриэнн Байлон, Дэна Дэвис, Рэй Бэйкер, Лэйси Биман, Марк МакКлюр, Карл Джиллиард, Каролина Гарсиа
Описание: Фильм основан на реальной истории, происшедшей в 1999 году в Ричмонде, штат Калифорния. Тренер школьной команды по баскетболу Кен Картер принял в середине сезона беспрецедентное решение, запретив игрокам, не испытавшим еще ни одного поражения, выходить на площадку из-за низкой успеваемости в школе. В итоге команда пропустила две игры в чемпионате, а юным баскетболистам был закрыт доступ в спортзал до тех пор, пока они не стали хорошо учиться. Поступок Картера вызвал одновременно и одобрение, и резкую критику со стороны родителей игроков и школьного руководства. Среди членов команды был и сын тренера, поступивший впоследствии в престижное учебное заведение.

Качество: BDRip (Рип с BDRemux 1080p)
Формат: MP4
Видео: AVC, 960x400 (2.40:1), 1744 kbps, 23.976 fps
Аудио 1: Русский, AAC, 2 ch, 48 kHz, 128 kbps [MVO]
Аудио 2: Английский, AAC, 2 ch, 48 kHz, 128 kbps [Original]
x264 [info]: frame I:1652 Avg QP:16.32 size: 62790
x264 [info]: frame P:45064 Avg QP:19.94 size: 19536
x264 [info]: frame B:149411 Avg QP:22.66 size: 5349

x264 [total]: encoded 196127 frames, 7.04 fps, 1743.96 kb/s
General
Complete name : [VIDEO] Coach.Carter.2005.BDRip.x264.960x(semen_52-TNC).mp4
Format : MPEG-4
Format profile : Base Media
Codec ID : isom
File size : 1.92 GiB
Duration : 2h 16mn
Overall bit rate mode : Variable
Overall bit rate : 2 011 Kbps
Movie name : [VIDEO] Coach Carter 2005 BDRip x264 960x(semen_52-TNC)
ContentType : Short Film
Encoded date : UTC 2015-01-04 18:58:14
Tagged date : UTC 2015-01-04 19:03:38
Writing application : MkvToMp4 version: 0.224 (x64)
Comment : Rip by semen_52-TNC

Video
ID : 1
Format : AVC
Format/Info : Advanced Video Codec
Format profile : [email protected]
Format settings, CABAC : Yes
Format settings, ReFrames : 8 frames
Codec ID : avc1
Codec ID/Info : Advanced Video Coding
Duration : 2h 16mn
Bit rate : 1 744 Kbps
Maximum bit rate : 6 191 Kbps
Width : 960 pixels
Height : 400 pixels
Display aspect ratio : 2.40:1
Frame rate mode : Constant
Frame rate : 23.976 fps
Color space : YUV
Chroma subsampling : 4:2:0
Bit depth : 8 bits
Scan type : Progressive
Bits/(Pixel*Frame) : 0.189
Stream size : 1.66 GiB (87%)
Writing library : x264 core 130 r2273 b3065e6
Encoding settings : cabac=1 / ref=8 / deblock=1:-3:-3 / analyse=0x3:0x113 / me=esa / subme=9 / psy=1 / psy_rd=0.90:0.10 / mixed_ref=1 / me_range=32 / chroma_me=1 / trellis=2 / 8x8dct=1 / cqm=0 / deadzone=21,11 / fast_pskip=0 / chroma_qp_offset=-3 / threads=12 / lookahead_threads=2 / sliced_threads=0 / nr=0 / decimate=1 / interlaced=0 / bluray_compat=0 / constrained_intra=0 / bframes=10 / b_pyramid=2 / b_adapt=2 / b_bias=0 / direct=1 / weightb=1 / open_gop=0 / weightp=2 / keyint=250 / keyint_min=25 / scenecut=40 / intra_refresh=0 / rc_lookahead=60 / rc=crf / mbtree=1 / crf=18.6 / qcomp=0.60 / qpmin=0 / qpmax=69 / qpstep=4 / ip_ratio=1.40 / aq=2:1.00
Language : English
Encoded date : UTC 2015-01-04 18:58:14
Tagged date : UTC 2015-01-04 18:59:54

Audio #1
ID : 2
Format : AAC
Format/Info : Advanced Audio Codec
Format profile : LC
Codec ID : 40
Duration : 2h 16mn
Bit rate mode : Variable
Bit rate : 128 Kbps
Maximum bit rate : 135 Kbps
Channel(s) : 2 channels
Channel positions : Front: L R
Sampling rate : 48.0 KHz
Compression mode : Lossy
Stream size : 125 MiB (6%)
Title : MVO
Language : Russian
Encoded date : UTC 2015-01-04 18:59:40
Tagged date : UTC 2015-01-04 18:59:54

Audio #2
ID : 3
Format : AAC
Format/Info : Advanced Audio Codec
Format profile : LC
Codec ID : 40
Duration : 2h 16mn
Bit rate mode : Variable
Bit rate : 128 Kbps
Maximum bit rate : 135 Kbps
Channel(s) : 2 channels
Channel positions : Front: L R
Sampling rate : 48.0 KHz
Compression mode : Lossy
Stream size : 125 MiB (6%)
Title : Original
Language : English
Encoded date : UTC 2015-01-04 18:59:47
Tagged date : UTC 2015-01-04 18:59:54

Text
ID : 4
Format : Timed Text
Muxing mode : sbtl
Codec ID : tx3g
Duration : 2h 11mn
Bit rate mode : Variable
Bit rate : 112 bps
Stream size : 108 KiB (0%)
Title : Full
Language : Russian
Encoded date : UTC 2015-01-04 18:59:54
Tagged date : UTC 2015-01-04 18:59:54


Трекер:  [ 04-Янв-2015 23:00 ]

  

Скачать .torrent

Размер .torrent файла 19 KB


Размер: 1.92 GB
Хэш (hash) релиза: 1617f37276ef77a40740ed8e3530f6dc20bc45bb

Торренты, похожие на [VIDEO] Тренер Картер Coach Carter скачать торрент

Форум Название Автор Размер S L Добавлен
Видео (Фильмы/Клипы) ·· [VIDEO] Тренер Картер / Coach Carter (Томас Картер) [2005, Драма, Спорт, BDRip] [3GP, 320x] Galfimbul 483006192461 MB 0 0 1417543618

21:06

2-Дек-14

Еще никто не оставлял запись к записи скачать торрент [VIDEO] Тренер Картер Coach Carter . Будь первым!

!Обратная связь