Your Song | Scream Queens | ZOBACZ TERAZ

Скачать через торрент [SERIAL] Легавый Сезон 2 бесплатно русская версия torrent активатор

Статистика раздачи
Размер:  7.38 GB   |    Зарегистрирован:  3 года 6 месяцев   |    .torrent скачан:  50 раз   |   
Раздают:  1  
   
загрузка...
 
Автор Сообщение

Galfimbul

avatar Galfimbul


Легавый Сезон 2

Год выпуска: 2014

Страна: Россия
Жанр: Боевик, криминал
Продолжительность: 45:00:00 x 32
Перевод: Не требуется
Cубтитры: нет

Режиссер: Олег Фомин

В ролях: Николай Козак, Эдуард Флёров, Михаил Горевой, Михаил Павлик, Андрей Гусев, Елена Полякова, Елена Мольченко, Екатерина Олькина, Дмитрий Горевой, Павел Ясенок, Максим Щёголев, Олег Данилевский, Олег Флеер, Евгений Смирнов-Иваницкий, Игорь Воробьёв, Евгений Березовский, Олег Фомин, Артурс Пуполс-Кочаневский, Владислав Резник, Владимир Бадов, Сергей Макаров, Артур Бичахчян, Александр Шишкин (IV), Александр Негреба, Андрей Копытов, Андрей Костюк, Александр Мынто, Аристарх Венес, Михаил Васьков, Сергей Шарифуллин, Дмитрий Дёмин, Сергей Беляев, Юрий Осипов, Полина Борунова, Михаил Асанкин, Мария Бородина (II)

Описание: Новые дела, новые враги и новая любовь Легавого… Все это – в новом сезоне «Легавого».
События второго сезона разворачиваются в период с лета 1953-го до весны 1954-го. Советский народ победил в Великой Отечественной, но дома осталась другая война…
Холодным летом 53-го война с бандитизмом будет продолжаться от Москвы до самых до окраин. С бандитами будет покончено, и враг будет разбит!
Главный герой — Легавый, он же Юрий Козырев — по-прежнему работает в одном из отделений милиции города Петрово Московской области. Его жизнь была налажена и размерена до тех пор, пока в стране не началась широкомасштабная амнистия. Из лагерей вышли тысячи матерых уголовников, большинство из которых направились в столицу, пытаясь по пути «прибарахлиться» — поживиться краденым. Это значит только одно — на долю Козырева опять придется много работы.
Но кроме разборок с рядовыми бандитами Юрию предстоит встретиться со старым врагом по фамилии Павливкер, которого он отправил в лагерь пять лет назад. Павливкера тоже амнистировали, восстановили в силовых структурах и назначили на ответственную должность. Теперь он пытается избавиться от Козырева с помощью служебных полномочий.
Эта беспощадная война с бандитами унесет не одну жизнь, беда придет и в дом Козырева. После гибели жены Полины ему придется одному воспитывать приемного сына.
Как он будет бороться с бандитизмом и справится ли с жизненными испытаниями — смотрите в новом сезоне детектива «Легавый» на НТВ!

Исходник (ссылка): [url]...4865576[/url]

Качество: WEB-DLRip
Формат: MP4
Видео: H.263, 0.100 bit/pixel, 640x360, 580 kbps 25,000 fps
Аудио: AAC, 2 ch, 44,1 КГц 128 kbps
ОбщееПолное имя : Легавый серия 12.mp4Формат : MPEG-4Профиль формата : Base MediaИдентификатор кодека : isomРазмер файла : 236 МбайтПродолжительность : 46 м.Режим общего битрейта : ПеременныйОбщий поток : 710 Кбит/секКоллекция : ЛегавыйСезон : 2Часть : 12Исполнитель : Олег ФоминДата записи : 2014Дата кодирования : UTC 2015-01-02 13:05:41Дата пометки : UTC 2015-01-02 13:05:41Программа кодирования : Lavf51.12.1Обложка : Yes

ВидеоИдентификатор : 1Формат : MPEG-4 VisualПрофиль формата : [email protected]Параметр BVOP формата : НетПараметр QPel формата : НетПараметр GMC формата : Без точки переходаПараметр матрицы формата : Default (H.263)Идентификатор кодека : 20Продолжительность : 46 м.Битрейт : 577 Кбит/секШирина : 640 пикселейВысота : 360 пикселейСоотношение сторон : 16:9Режим частоты кадров : ПостоянныйЧастота кадров : 25,000 кадров/секЦветовое пространство : YUVСубдискретизация насыщенности : 4:2:0Битовая глубина : 8 битТип развёртки : ПрогрессивнаяМетод сжатия : С потерямиБит/(Пиксели*Кадры) : 0.100Размер потока : 192 Мбайт (81%)Библиотека кодирования : Lavc51.40.4Дата кодирования : UTC 2015-01-02 13:05:41Дата пометки : UTC 2015-01-02 13:05:41

АудиоИдентификатор : 2Формат : AACФормат/Информация : Advanced Audio CodecПрофиль формата : LCИдентификатор кодека : 40Продолжительность : 46 м.Вид битрейта : ПеременныйБитрейт : 128 Кбит/секКаналы : 2 каналаРасположение каналов : Front: L RЧастота : 44,1 КГцМетод сжатия : С потерямиРазмер потока : 42,6 Мбайт (18%)Дата кодирования : UTC 2015-01-02 13:05:41Дата пометки : UTC 2015-01-02 13:05:41


Трекер:  [ 04-Янв-2015 13:30 ]

  

Скачать .torrent

Размер .torrent файла 76 KB


Размер: 7.38 GB
Хэш (hash) релиза: c52299b48109713b607899f038ffd70cddbce50a

Еще никто не оставлял запись к записи скачать торрент [SERIAL] Легавый Сезон 2 . Будь первым!

!Обратная связь