Altair Hyperworks v13.0.110 (x64) | Télécharger Part 2 | Come To Play

Скачать через торрент [DOC] BBC. Нетронутые уголки дикой природы Микромиры бесплатно русская версия torrent активатор

Статистика раздачи
Размер:  1.98 GB   |    Зарегистрирован:  3 года 6 месяцев   |    .torrent скачан:  81 раз   |   
Раздают:  1  
   
загрузка...
 
Автор Сообщение

Galfimbul

avatar Galfimbul


BBC. Нетронутые уголки дикой природы / Микромиры / Nature's Microworlds (16 серий из 16) [480x272]
Сезон 1. Загадки экосистем (13 серий)
Сезон 2: Членистоногие (3 серии)

2015-01-04
Раздача обновлена. Добавлено 13 новых серий. Все старые файлы заменены.
Удалите все старые файлы и перекачайте торрент-файл заново.


Год выпуска: 2012

Страна: Великобритания
Жанр: Документальный, экология
Продолжительность: 16x29мин
Перевод: Студийный (одноголосый закадровый)
Доп. инфо о переводе: SDI-media (перевод Юлии Стефанович, читает Юрий Большаков)
Cубтитры: нет

Режиссер: BBC
Телеканал: Viasat Nature HD

Описание: Наша планета – величайшая загадка Вселенной. Миры внутри других миров, каждый из которых - это самостоятельная экосистема, наполненная жизнью. Для того чтобы понять, как эти миры устроены, мы попытаемся исследовать их по отдельности. Мы сможем разобрать эту необыкновенную мозаику по кусочкам и обнаружить главный элемент – ключ к самой жизни, спрятанный глубоко в каждом из миров. Для этого мы отправимся в путешествие по Галапагосским островам, в Национальный парк Серенгети, на полярный остров Шпицберген, в тропические леса Амазонки и пустыни Австралии.

Доп. информация: Очень редкий жанр: анализ внутренних экосистемных взаимосвязей.
Сериал обладает высочайшей плотностью по количеству полезной информации в единицу времени, превосходя по этому качеству даже фильмы Аттенборо.

Качество: HDTVRip
Формат: MP4
Видео кодек: H.264
Аудио кодек: AAC
Видео: AVC, H.264 [email protected], 480x272 (16:9), 25 fps, 350 Kbps (0.107 bit/pixel)
Аудио: AAC LC, 160kbps, 48.0 KHz, 2 ch (русский)
Сэмпл: http://yadi.sk/i/FmIOftt0dmiAK
Сезон 1. Загадки экосистем

01 Галапагосы
02 Серенгети
03 Амазония
04 Залив Монтерей
05 Окаванго
06 Шпицберген
07 Береговые леса Канады
08 Большой Барьерный риф
09 Пустыня Намиб
10 Йеллоустон
11 Глубоководное море
12 Красный центр Австралии
13 Шотландское нагорье

Сезон 2: Членистоногие
Членистоногие 1. Они и мы
Членистоногие 2. Создание миров
Членистоногие 3. Секрет их успеха

01 Галапагосы

Галапагосы стали местом обитания невероятного количества уникальных животных, многие виды которых можно найти только на этих островах. Но как они там оказались?

02 Серенгети

Национальный парк Серенгети в Африке состоит из огромных лугов и пастбищ, ставших домом для беспрецедентного количества травоядных животных. Но что такого особенного в траве, произрастающей в этой местности?

03 Амазония

Амазония обладает одной из самых богатых и сбалансированных экосистем на Земле. Но всё это изобилие растёт на крайне бедной почве. Как это получается?

04 Залив Монтерей

Мы отправимся в увлекательное путешествие по экосистеме залива Монтерей в Калифорнии, где гигантские водоросли приютили самых разнообразных животных. Здесь всё находится в тонком равновесии, и лишь разрушив его, мы случайно об этом узнали.

05 Окаванго

Низовья реки Окаванго представляет собой величайшую в мире внутреннюю дельту, которая стала прибежищем для разнообразных растений и животных. Как возникла экосистема, способная выживать и в состоянии пустыни и в состоянии болота?

06 Шпицберген

Полярный архипелаг Шпицберген, казалось бы, обладает слишком холодным климатом для каких-либо видов жизни. Тем не менее, там можно найти белых медведей, северных оленей и тюленей. Как такое может быть?

07 Береговые леса Канады

Что такого необычного в береговых лесах Канады, что они стали домом для самых колоссальных деревьев на нашей планете?

08 Большой Барьерный риф

Большой Барьерный риф в Австралии является самым большим рифом на планете. Но почему он стал таким большим?

09 Пустыня Намиб

Пустыня Намиб лишена одной из важных составляющих жизни. Воды. Дождя здесь может не быть целый год. Однако, здесь встречается почти 180 видов животных, которые больше нигде не встречаются. Как функционирует эта экосистема?

10 Йеллоустон

В 1995 году в Национальный парк Йеллоустон после семидесятилетнего перерыва снова выпустили волков. Неожиданность их влияния на экосистему заставило учёных пересмотреть свои представления о волках.

11 Глубоководное море

Глубоководное море, самый низкий уровень океана. Здесь совсем нет света и почти нет кислорода. Однако есть жизнь, иногда очень богатая. На чём основана эта пищевая цепь?

12 Красный центр Австралии

Несмотря на то, что Красный центр в Австралии известен своим суровым и неприветливым климатом, там можно встретить неожиданно много крупных животных, таких как большие рыжие кенгуру, эму и динго. Чем они питаются?

13 Шотландское нагорье

Изучение лесов и лугов Северо-Шотландского нагорья открыло ученым удивительную особенность здешней экосистемы: её существование невозможно.

Членистоногие 1. Они и мы

Членистоногие. Ракообразные, насекомые и пауки. Они могли бы жить без нас. Мы без них - нет. Почему и как мы от них зависим?

Членистоногие 2. Создание миров

Многие экосистемы не могли бы существовать, если бы на Земле не существовало членистоногих. Давайте рассмотрим примеры таких экосистем.

Членистоногие 3. Секрет их успеха

Членистоногие - самая успешная группа животных на Земле. Нет ни одной экологической ниши, которую бы они не заняли. Давайте рассмотрим некоторые наиболее яркие примеры.
GeneralComplete name : D:\Torrent\Раздаваемое\[doc] Нетронутые уголки дикой природы [13x29мин] 480x272\01 Галапагосы.mp4Format : MPEG-4Format profile : Base Media / Version 2Codec ID : mp42File size : 126 MiBDuration : 29mn 0sOverall bit rate : 608 KbpsEncoded date : UTC 2014-12-05 16:58:32Tagged date : UTC 2014-12-05 16:58:33Writing application : mp4creator 1.6.1d

VideoID : 1Format : AVCFormat/Info : Advanced Video CodecFormat profile : [email protected] settings, CABAC : NoFormat settings, ReFrames : 4 framesCodec ID : avc1Codec ID/Info : Advanced Video CodingDuration : 29mn 0sBit rate mode : VariableBit rate : 450 KbpsWidth : 480 pixelsHeight : 272 pixelsDisplay aspect ratio : 16:9Frame rate mode : ConstantFrame rate : 25.000 fpsColor space : YUVChroma subsampling : 4:2:0Bit depth : 8 bitsScan type : ProgressiveBits/(Pixel*Frame) : 0.138Stream size : 92.4 MiB (73%)Writing library : x264 core 130 r2274bm c832fe9Encoding settings : cabac=0 / ref=4 / deblock=0:-1:-1 / analyse=0x1:0x131 / me=umh / subme=9 / psy=1 / psy_rd=1.00:0.15 / mixed_ref=1 / me_range=16 / chroma_me=1 / trellis=2 / 8x8dct=0 / cqm=0 / deadzone=21,11 / fast_pskip=1 / chroma_qp_offset=-3 / threads=4 / lookahead_threads=4 / sliced_threads=1 / slices=4 / nr=0 / decimate=1 / interlaced=0 / bluray_compat=0 / constrained_intra=0 / bframes=0 / weightp=0 / keyint=250 / keyint_min=25 / scenecut=40 / intra_refresh=0 / rc=abr / mbtree=0 / bitrate=450 / ratetol=1.0 / qcomp=0.60 / qpmin=0 / qpmax=69 / qpstep=4 / ip_ratio=1.40 / aq=1:1.00Language : EnglishEncoded date : UTC 2014-12-05 16:58:32Tagged date : UTC 2014-12-05 16:58:33

AudioID : 2Format : AACFormat/Info : Advanced Audio CodecFormat profile : LCCodec ID : 40Duration : 29mn 0sBit rate mode : ConstantBit rate : 160 KbpsChannel(s) : 2 channelsChannel positions : Front: L RSampling rate : 48.0 KHzCompression mode : LossyStream size : 33.2 MiB (26%)Language : EnglishEncoded date : UTC 2014-12-05 16:58:33Tagged date : UTC 2014-12-05 16:58:33
В других форматах:
<ol class="post-ul">
[url=...4810156]В формате TV [MKV 400p][/url]
</ol>
Другие мои раздачи документалистики для смартфонов:
<ol class="post-ul">
[url=...287&pid=9814912]Список[/url]
</ol>

Трекер:  [ 04-Янв-2015 05:30 ]

  

Скачать .torrent

Размер .torrent файла 41 KB


Размер: 1.98 GB
Хэш (hash) релиза: f319578b2262920d72e0d0136bde7aad3a780535

Еще никто не оставлял запись к записи скачать торрент [DOC] BBC. Нетронутые уголки дикой природы Микромиры . Будь первым!

!Обратная связь