Rednex - Rednex Sex Violins - 1995 | Lisbeth Bartlett | Разные системные утилиты

Скачать через торрент [MULT] Бабай бесплатно русская версия torrent активатор

Статистика раздачи
Размер:  308 MB   |    Зарегистрирован:  3 года 6 месяцев   |    .torrent скачан:  53 раза   |   
Раздают:  1  
   
загрузка...
 
Автор Сообщение

Galfimbul

avatar Galfimbul


Бабай
Год выпуска: 2014

Страна: Украина
Жанр: мультфильм, приключения, комедия, фэнтези, семейны
Продолжительность: 01:07:11
Перевод: Не требуется
Cубтитры: нет
Режиссер: Марина Медведь
В ролях: Рада Белова, Ирма Витовская, Остап Ступка, Олеся Чичельницкая, Катерина Бутская, Андрей Федюнчиков, Евгений Пашин, Ольга Радчук, Алена Блинникова, Мирослав Кувалдин

Роли дублировали: Алексей Потапенко, Настя Каменских
Описание: Что будет, если в мире появится волшебное яйцо, исполняющее одно, но самое заветное желание? А что, если охоту за ним начнут герои детских страшилок — Ведьма с Чертом, Вий и главный злодей и кошмар всех детских снов Бабай со своей армией страхов… Страшно представить ради исполнения каких сокровенных желаний силы тьмы восстали против друг друга, и что будет с теми, кто случайно окажется у них на пути…

Качество: WEB-DLRip (исх. WEB-DL.1080p)
Формат: MP4
Видео: x.264, 480x260, 512 kbps, 25 fps
Аудио: AAC, 44100 Hz, 128 kbps, 2.0 ch

Format : MPEG-4Format profile : Base MediaCodec ID : isomFile size : 308 MiBDuration : 1h 7mnOverall bit rate mode : VariableOverall bit rate : 640 KbpsEncoded date : UTC 2015-01-03 20:34:58Tagged date : UTC 2015-01-03 20:34:58

VideoID : 1Format : AVCFormat/Info : Advanced Video CodecFormat profile : [email protected] settings, CABAC : NoFormat settings, ReFrames : 3 framesCodec ID : avc1Codec ID/Info : Advanced Video CodingDuration : 1h 7mnBit rate : 512 KbpsMaximum bit rate : 1 907 KbpsWidth : 480 pixelsHeight : 260 pixelsDisplay aspect ratio : 1.85:1Frame rate mode : ConstantFrame rate : 25.000 fpsColor space : YUVChroma subsampling : 4:2:0Bit depth : 8 bitsScan type : ProgressiveBits/(Pixel*Frame) : 0.164Stream size : 246 MiB (80%)Writing library : x264 core 144 r2525 40bb568Encoding settings : cabac=0 / ref=3 / deblock=1:-1:0 / analyse=0x1:0x131 / me=umh / subme=9 / psy=1 / psy_rd=1.00:0.00 / mixed_ref=1 / me_range=48 / chroma_me=1 / trellis=2 / 8x8dct=0 / cqm=0 / deadzone=21,11 / fast_pskip=0 / chroma_qp_offset=-2 / threads=6 / lookahead_threads=1 / sliced_threads=0 / nr=0 / decimate=1 / interlaced=0 / bluray_compat=0 / constrained_intra=0 / bframes=0 / weightp=0 / keyint=250 / keyint_min=25 / scenecut=40 / intra_refresh=0 / rc_lookahead=60 / rc=2pass / mbtree=0 / bitrate=512 / ratetol=1.0 / qcomp=0.60 / qpmin=0 / qpmax=69 / qpstep=4 / cplxblur=20.0 / qblur=0.5 / vbv_maxrate=2500 / vbv_bufsize=5000 / nal_hrd=none / filler=0 / ip_ratio=1.30 / aq=1:1.00Encoded date : UTC 2015-01-03 20:34:58Tagged date : UTC 2015-01-03 20:35:08

AudioID : 2Format : AACFormat/Info : Advanced Audio CodecFormat profile : LCCodec ID : 40Duration : 1h 7mnBit rate mode : VariableBit rate : 125 KbpsMaximum bit rate : 186 KbpsChannel(s) : 2 channelsChannel positions : Front: L RSampling rate : 44.1 KHzCompression mode : LossyStream size : 60.3 MiB (20%)Language : RussianEncoded date : UTC 2015-01-03 17:33:14Tagged date : UTC 2015-01-03 20:35:08


Трекер:  [ 03-Янв-2015 23:30 ]

  

Скачать .torrent

Размер .torrent файла 12 KB


Размер: 308 MB
Хэш (hash) релиза: 3125b405371f0fa88550386c4cca6fbfd0d2949b

Еще никто не оставлял запись к записи скачать торрент [MULT] Бабай . Будь первым!

!Обратная связь