DIRECT DOWNLOAD LINKS | Télécharger Part 6 | Wally Cassell

Скачать через торрент [SERIAL] Портал Юрского периода Primeval бесплатно русская версия torrent активатор

Статистика раздачи
Размер:  5.47 GB   |    Зарегистрирован:  3 года 6 месяцев   |    .torrent скачан:  47 раз   |   
Раздают:  1   Качают:  1  
   
загрузка...
 
Автор Сообщение

Galfimbul

avatar Galfimbul


Портал Юрского периода / Primeval

Год выпуска: 2007-2011

Страна: Великобритания

Жанр: фантастика, боевик, фэнтези

Продолжительность: 00:44:00

Перевод: Профессиональный (дублированный) ОРТ 1 сезон ОРТ

Перевод 2: Профессиональный (многоголосый закадровый) ТВ3 2-5 сезон

Cубтитры: нет

Оригинальная аудиодорожка: нет

Режиссер: Джеми Пэйн, Цилла Уэр, Эндрю Ган

В ролях: Джеймс Мюррей, Джулиетт Обри, Дуглас Хеншелл, Люси Браун, Ханна Спиритт и др.

Описание: Столкновение двух миров, современного и доисторического, врывается в жизнь человечества, переворачивая все с ног на голову. Сквозь временную воронку в современный мир врываются ужасные чудовища, населявшие планету милиарды лет назад. Представьте себе потрясающие спецэффекты "Прогулок с Динозаврами", невероятный драйв "Парка Юрского Периода" и прибавьте к этому необычно романтическую любовную историю - только так вы получите представление о новом фантастическом сериале "Параллельный мир", о возможном конце эволюционного пути человечества.

Качество: DVDRip

Формат: AVI

Видео: Video: 320x176 (1.33:1), 25 fps, XviD build 50 ~330 kbps avg, 0.19 bit/pixel 1 СЕЗОН
Аудио: Audio: 48 kHz, MPEG Layer 3, 2 ch, ~128.00 kbps avg

Видео: Video: 320x176 (1.33:1), 25 fps, XviD build 50 ~3550 kbps avg, 0.19 bit/pixel 2-5 СЕЗОН
Аудио: Audio: 48 kHz, MPEG Layer 3, 2 ch, ~128.00 kbps avg
GeneralComplete name : G:\Portal\1\primeval.s01e01-02.dvdrip.rus.eng.filmgate_tv.aviFormat : AVIFormat/Info : Audio Video InterleaveFile size : 303 MiBDuration : 1h 30mnOverall bit rate : 470 KbpsWriting application : Lavf52.57.1

VideoID : 0Format : xvidCodec ID : xvidDuration : 1h 30mnBit rate : 329 KbpsWidth : 320 pixelsHeight : 176 pixelsDisplay aspect ratio : 16:9Frame rate : 25.000 fpsBits/(Pixel*Frame) : 0.234Stream size : 212 MiB (70%)

AudioID : 1Format : MPEG AudioFormat version : Version 1Format profile : Layer 3Mode : Joint stereoCodec ID : 55Codec ID/Hint : MP3Duration : 1h 30mnBit rate mode : ConstantBit rate : 128 KbpsChannel(s) : 2 channelsSampling rate : 48.0 KHzCompression mode : LossyStream size : 82.6 MiB (27%)Alignment : Aligned on interleavesInterleave, duration : 24 ms (0.60 video frame)


Трекер:  [ 03-Янв-2015 16:30 ]

  

Скачать .torrent

Размер .torrent файла 17 KB


Размер: 5.47 GB
Хэш (hash) релиза: 669df60ae1aa6902979b683918aaf93c3dbfec0b

Еще никто не оставлял запись к записи скачать торрент [SERIAL] Портал Юрского периода Primeval . Будь первым!

!Обратная связь