Central Intelligence
Download

Скачать через торрент [VIDEO] Бобби Джи не может выплыть Bobby G. Cant Swim бесплатно русская версия torrent активатор

Статистика раздачи
Размер:  375 MB   |    Зарегистрирован:  3 года 3 месяца   |    .torrent скачан:  41 раз   |   
Раздают:  1  
   
загрузка...
 
Автор Сообщение

Galfimbul

avatar Galfimbul


Бобби Джи не может выплыть / Bobby G. Can't Swim
«An uncensored look at life on The Streets of New York»

Год выпуска: 1999
Страна: США
Жанр: криминал, драма
Продолжительность: 01:21:04
Перевод: Профессиональный (многоголосый закадровый) TV1000
Cубтитры: нет
Режиссер: Жан-Люк Монтиа / John-Luke Montias
В ролях: Жан-Люк Монтиа, Винсент Вега, Норман Мидэлтон, Сьюзен Митчел, Донна Санкин и др.

Описание: Мелкий наркоторговец Бобби Грэйс хочет заработать немного денег, чтобы обеспечить на некоторое время себя и свою подругу, пуэрто-риканкскую проститутку Люсию. Когда же наконец намечается удачное дельце, все внезапно рушится, и Бобби снова остается без денег. Теперь ему приходится взять в руки оружие и потом оказаться на грани безумия…
Доп. информация: сэмпл

7.478 (40) 6.4 (305)

Исходник (ссылка): [url=...2536480]Гость[/url]
Качество: WEB-DLRip
Формат: MP4
Видео: AVC, 480x256 (1.899:1), 512 kbps, 25.000 fps
Аудио: русский [MVO] AAC, 2ch, 48.0 kHz, 128 kbps
ОбщееПолное имя : BobbyG.Can't.Swim.mp4Формат : MPEG-4Профиль формата : Base MediaИдентификатор кодека : isomРазмер файла : 375 МбайтПродолжительность : 1 ч. 21 м.Общий поток : 646 Кбит/секПрограмма кодирования : Lavf56.16.101

ВидеоИдентификатор : 1Формат : AVCФормат/Информация : Advanced Video CodecПрофиль формата : [email protected]Параметр CABAC формата : ДаПараметр ReFrames формата : 8 кадровИдентификатор кодека : avc1Идентификатор кодека/Информация : Advanced Video CodingПродолжительность : 1 ч. 21 м.Битрейт : 512 Кбит/секШирина : 480 пикселейВысота : 256 пикселейСоотношение сторон : 1,899Соотношение сторон в оригинале : 1,900Режим частоты кадров : ПостоянныйЧастота кадров : 25,000 кадров/секЦветовое пространство : YUVСубдискретизация насыщенности : 4:2:0Битовая глубина : 8 битТип развёртки : ПрогрессивнаяБит/(Пиксели*Кадры) : 0.167Размер потока : 297 Мбайт (79%)Библиотека кодирования : x264 core 133 r2334 a3ac64bНастройки программы : cabac=1 / ref=8 / deblock=1:0:0 / analyse=0x3:0x133 / me=umh / subme=9 / psy=1 / psy_rd=1.00:0.00 / mixed_ref=1 / me_range=16 / chroma_me=1 / trellis=2 / 8x8dct=1 / cqm=0 / deadzone=21,11 / fast_pskip=1 / chroma_qp_offset=-2 / threads=6 / lookahead_threads=1 / sliced_threads=0 / nr=0 / decimate=1 / interlaced=0 / bluray_compat=0 / constrained_intra=0 / bframes=3 / b_pyramid=2 / b_adapt=2 / b_bias=0 / direct=3 / weightb=1 / open_gop=0 / weightp=2 / keyint=250 / keyint_min=25 / scenecut=40 / intra_refresh=0 / rc_lookahead=60 / rc=2pass / mbtree=1 / bitrate=512 / ratetol=1.0 / qcomp=0.60 / qpmin=0 / qpmax=69 / qpstep=4 / cplxblur=20.0 / qblur=0.5 / ip_ratio=1.40 / aq=1:1.00

АудиоИдентификатор : 2Формат : AACФормат/Информация : Advanced Audio CodecПрофиль формата : LCИдентификатор кодека : 40Продолжительность : 1 ч. 21 м.Вид битрейта : ПостоянныйБитрейт : 128 Кбит/секКаналы : 2 каналаРасположение каналов : Front: L RЧастота : 48,0 КГцМетод сжатия : С потерямиРазмер потока : 74,2 Мбайт (20%)Язык : Russian


Трекер:  [ 01-Янв-2015 05:30 ]

  

Скачать .torrent

Размер .torrent файла 29 KB


Размер: 375 MB
Хэш (hash) релиза: 866c39c4a7743eb3042a5b5b95fc0f2e686558ef

Еще никто не оставлял запись к записи скачать торрент [VIDEO] Бобби Джи не может выплыть Bobby G. Cant Swim . Будь первым!

!Обратная связь