Once Upon a Time | Eric Larsen | Young Dracula

Скачать через торрент [VIDEO] Монстр Monster бесплатно русская версия torrent активатор

Статистика раздачи
Размер:  733 MB   |    Зарегистрирован:  3 года 6 месяцев   |    .torrent скачан:  38 раз   |   
Раздают:  1  
   
загрузка...
 
Автор Сообщение

Galfimbul

avatar Galfimbul


Монстр / Monster
«Based on a true story»

Год выпуска: 2003
Страна: США, Германия
Жанр: биография, криминал, драма
Продолжительность: 01:48:48
Перевод: Профессиональный (дублированный)
Cубтитры: только русские
Оригинальная аудиодорожка: английский
Режиссер: Пэтти Дженкинс / Patty Jenkins
В ролях: Шарлиз Терон, Кристина Риччи, Брюс Дерн, Ли Тергесен, Энни Корли, Прюитт Тэйлор Винс, Марко Ст. Джон, Марк Маколей, Скотт Уилсон, Рас Блэквелл
Описание: Любовная история, разворачивающаяся на фоне ужасных преступлении двух отверженных — проститутки-бродяжки Уорнос, убивающей многих из своих клиентов — «джонни», и Селби Уолл, отосланной родителями к тетке во Флориду, чтобы «излечить от лесбийских наклонностей».
Доп. информация:
7.509 (12 802) 7.3 (91 157)


Исходник (ссылка): видео и дубляж [url=...4276399]Ювелир[/url]
Качество: WEB-DLRip
Формат: MP4
Видео: AVC, 640x348 (1.85:1), 679 kbps, 23.976 fps
Аудио: русский [DUB] AAC, 2 ch, 48.0 kHz, 128 kbps
Аудио №2: английский [original] AAC, 2 ch, 48.0 kHz, 128 kbps
ОбщееПолное имя : Monster2003.mp4Формат : MPEG-4Профиль формата : Base MediaИдентификатор кодека : isomРазмер файла : 733 МбайтПродолжительность : 1 ч. 48 м.Режим общего битрейта : ПеременныйОбщий поток : 942 Кбит/секПрограмма кодирования : Lavf56.16.101

ВидеоИдентификатор : 1Формат : AVCФормат/Информация : Advanced Video CodecПрофиль формата : [email protected]Параметр CABAC формата : ДаПараметр ReFrames формата : 4 кадраИдентификатор кодека : avc1Идентификатор кодека/Информация : Advanced Video CodingПродолжительность : 1 ч. 48 м.Битрейт : 679 Кбит/секШирина : 640 пикселейВысота : 348 пикселейСоотношение сторон : 1,85:1Режим частоты кадров : ПостоянныйЧастота кадров : 23,976 кадра/секЦветовое пространство : YUVСубдискретизация насыщенности : 4:2:0Битовая глубина : 8 битТип развёртки : ПрогрессивнаяБит/(Пиксели*Кадры) : 0.127Размер потока : 527 Мбайт (72%)Библиотека кодирования : x264 core 133 r2334 a3ac64bНастройки программы : cabac=1 / ref=3 / deblock=1:0:0 / analyse=0x3:0x113 / me=hex / subme=9 / psy=1 / psy_rd=1.00:0.00 / mixed_ref=1 / me_range=16 / chroma_me=1 / trellis=2 / 8x8dct=1 / cqm=0 / deadzone=21,11 / fast_pskip=1 / chroma_qp_offset=-2 / threads=6 / lookahead_threads=1 / sliced_threads=0 / nr=0 / decimate=1 / interlaced=0 / bluray_compat=0 / constrained_intra=0 / bframes=3 / b_pyramid=2 / b_adapt=2 / b_bias=0 / direct=1 / weightb=1 / open_gop=0 / weightp=2 / keyint=240 / keyint_min=23 / scenecut=40 / intra_refresh=0 / rc_lookahead=40 / rc=abr / mbtree=1 / bitrate=679 / ratetol=1.0 / qcomp=0.60 / qpmin=0 / qpmax=69 / qpstep=4 / ip_ratio=1.40 / aq=1:1.00

Аудио #1Идентификатор : 2Формат : AACФормат/Информация : Advanced Audio CodecПрофиль формата : LCИдентификатор кодека : 40Продолжительность : 1 ч. 48 м.Duration_LastFrame : 21 мс.Вид битрейта : ПостоянныйБитрейт : 128 Кбит/секКаналы : 2 каналаРасположение каналов : Front: L RЧастота : 48,0 КГцМетод сжатия : С потерямиРазмер потока : 99,6 Мбайт (14%)Язык : Russian

Аудио #2Идентификатор : 3Формат : AACФормат/Информация : Advanced Audio CodecПрофиль формата : LCИдентификатор кодека : 40Продолжительность : 1 ч. 48 м.Duration_LastFrame : 11 мс.Вид битрейта : ПостоянныйБитрейт : 128 Кбит/секКаналы : 2 каналаРасположение каналов : Front: L RЧастота : 48,0 КГцМетод сжатия : С потерямиРазмер потока : 99,6 Мбайт (14%)Язык : English

ТекстИдентификатор : 4Формат : Timed TextРежим смешивания : sbtlИдентификатор кодека : tx3gПродолжительность : 1 ч. 48 м.Вид битрейта : ПеременныйБитрейт : 110 бит/секРазмер потока : 87,8 Кбайт (0%)Язык : Russian


Трекер:  [ 30-Дек-2014 09:30 ]

  

Скачать .torrent

Размер .torrent файла 29 KB


Размер: 733 MB
Хэш (hash) релиза: e8b2628e3e5fa0780044b614b1515e0aca1f7233

Еще никто не оставлял запись к записи скачать торрент [VIDEO] Монстр Monster . Будь первым!

!Обратная связь