Hotel 13 | One Direction - Kiss You. | The Sims 4: Deluxe Edition [v 1.31.37.1020] (2014) PC | RePack от xatab

Скачать через торрент [MULT] Звездные войны: Повстанцы Star Wars: Rebels бесплатно русская версия torrent активатор

Статистика раздачи
Размер:  1.7 GB   |    Зарегистрирован:  3 года 6 месяцев   |    .torrent скачан:  56 раз   |   
Раздают:  1  
   
загрузка...
 
Автор Сообщение

Galfimbul

avatar Galfimbul


Звездные войны: Повстанцы
Star Wars: Rebels

Год выпуска: 2014
Страна: США (Lucasfilm Ltd, Disneyxd)
Жанр: Фантастика, мультсериал, приключения
Продолжительность: 1 х ~00:40:00 + 6 х ~00:20:00 + 4 х ~00:02:30
Перевод: Профессиональный (полное дублирование) [Невафильм]
Оригинальная дорожка: Нет
Cубтитры: Нет
Режиссер: Стюарт Ли / Steward Lee, Дэйв Филони / Dave Filoni, Стивен Дж. Ли / Steven G. Lee
Роли озвучивали: Ванесса Маршалл, Фредди Принц мл., Стивен Блум, Тия Сиркар, Тейлор Грэй, Дэвид Ойелоуо, Кит Шарабайка, Лайам О’Брайэн, Грег Уайзман, Грег Эллис
Описание: Анимационный телесериал, действие которого разворачивается в период между фильмами «Звёздные войны. Эпизод III: Месть ситхов» и «Звёздные войны. Эпизод IV: Новая надежда». Сериал будет рассказывать о разномастной группе повстанцев, экипаже космического корабля «Призрак», и их борьбе против Галактической Империи.

Все раздачи сериала
Качество: WEB-DLRip (Рип с WEB-DL 1080p Кинозал), Бонусы - HDTVRip (Рип с HDTV 720 Кинозал)
Видео: AVC, 960х536 (16:9), 1193 Kbps (crf=19), 23.976 fps
Аудио: Русский, AAC, 2 ch, 48 kHz, 128 kbps [Dub, Невафильм]
<ol type="1">
Spark of Rebellion
Droids in Distress
Fighter Flight
Rise of the Old Masters
Breaking Ranks
Out of Darkness
Empire Day
</ol>
x264 [info]: frame I:835 Avg QP:15.66 size: 53545
x264 [info]: frame P:19109 Avg QP:19.49 size: 11673
x264 [info]: frame B:42442 Avg QP:23.48 size: 2837

x264 [total]: encoded 62386 frames, 20.37 fps, 1193.47 kb/s
General
Complete name : Zvezdnye.Vojny.Povstancy.2014.S01.WEB-DLRip.x264.960x(semen_52-TNC)\[MULT] Zvezdnye.Vojny.Povstancy.2014.S01.E01.WEB-DLRip.x264.960x(semen_52-TNC).mp4
Format : MPEG-4
Format profile : Base Media
Codec ID : isom
File size : 412 MiB
Duration : 43mn 22s
Overall bit rate mode : Variable
Overall bit rate : 1 329 Kbps
Movie name : [MULT] Zvezdnye Vojny Povstancy 2014 S01 E01 WEB-DLRip x264 960x(semen_52-TNC)
ContentType : Short Film
Encoded date : UTC 2014-10-11 18:55:52
Tagged date : UTC 2014-10-11 18:56:09
Writing application : MkvToMp4 version: 0.224 (x64)
Comment : Rip by semen_52-TNC

Video
ID : 1
Format : AVC
Format/Info : Advanced Video Codec
Format profile : [email protected]
Format settings, CABAC : Yes
Format settings, ReFrames : 8 frames
Codec ID : avc1
Codec ID/Info : Advanced Video Coding
Duration : 43mn 22s
Bit rate : 1 193 Kbps
Maximum bit rate : 5 508 Kbps
Width : 960 pixels
Height : 536 pixels
Display aspect ratio : 16:9
Frame rate mode : Constant
Frame rate : 23.976 fps
Color space : YUV
Chroma subsampling : 4:2:0
Bit depth : 8 bits
Scan type : Progressive
Bits/(Pixel*Frame) : 0.097
Stream size : 370 MiB (90%)
Writing library : x264 core 130 r2273 b3065e6
Encoding settings : cabac=1 / ref=8 / deblock=1:1:1 / analyse=0x3:0x113 / me=umh / subme=9 / psy=1 / psy_rd=0.40:0.00 / mixed_ref=1 / me_range=24 / chroma_me=1 / trellis=2 / 8x8dct=1 / cqm=0 / deadzone=21,11 / fast_pskip=0 / chroma_qp_offset=-2 / threads=6 / lookahead_threads=6 / sliced_threads=0 / nr=0 / decimate=1 / interlaced=0 / bluray_compat=0 / constrained_intra=0 / bframes=3 / b_pyramid=2 / b_adapt=2 / b_bias=0 / direct=1 / weightb=1 / open_gop=0 / weightp=2 / keyint=250 / keyint_min=25 / scenecut=40 / intra_refresh=0 / rc_lookahead=60 / rc=crf / mbtree=1 / crf=19.0 / qcomp=0.60 / qpmin=0 / qpmax=69 / qpstep=4 / ip_ratio=1.40 / aq=1:0.60
Language : English
Encoded date : UTC 2014-10-11 18:55:52
Tagged date : UTC 2014-10-11 18:56:00

Audio
ID : 2
Format : AAC
Format/Info : Advanced Audio Codec
Format profile : LC
Codec ID : 40
Duration : 43mn 22s
Bit rate mode : Variable
Bit rate : 128 Kbps
Maximum bit rate : 179 Kbps
Channel(s) : 2 channels
Channel positions : Front: L R
Sampling rate : 48.0 KHz
Compression mode : Lossy
Stream size : 39.7 MiB (10%)
Title : Dub Nevafilm
Language : Russian
Encoded date : UTC 2014-10-11 18:55:58
Tagged date : UTC 2014-10-11 18:56:00
Внимание! Раздача ведётся путём добавления новых серий; при каждом добавлении создётся новый торрент. Чтобы начать докачку новой серии, пользователям необходимо сделать следующее:
(1) остановить скачивание,
(2) удалить старый торрент у себя из клиента (старые серии удалять не надо),
(3) скачать новый торрент и запустить его у себя в клиенте вместо старого, при этом указать клиенту путь в старую папку куда и должно происходить скачивание новых серий.
Ваш клиент при этом должен произвести хеширование (проверку) старой папки (если не производит сам - помогите ему сделать это), и будет докачивать только те серии которых у вас ещё нет. Старые серии при этом не удаляются, а продолжают раздаваться!
Eсли вы уже удалили старые серии, то предотвратить повторную закачку старых серий можно, отжав галочку в соответсвующих местах при запуске нового торрента. По возможности, желательно не удалять старые серии как можно дольше чтобы релизёр не столько продолжал раздавать старые серии, а смог сконцентрироваться на новых


Трекер:  [ 28-Дек-2014 23:00 ]

  

Скачать .torrent

Размер .torrent файла 19 KB


Размер: 1.7 GB
Хэш (hash) релиза: ef7a6565fb3cbe15a80cf4f24fd3b36519a4783f

Еще никто не оставлял запись к записи скачать торрент [MULT] Звездные войны: Повстанцы Star Wars: Rebels . Будь первым!

!Обратная связь