Enterprise Application Architecture with .NET Core | Télécharger Part 5 | Love Nikki-Dress UP Queen

Скачать через торрент [VIDEO] Пока ты спал While you were sleeping бесплатно русская версия torrent активатор

Статистика раздачи
Размер:  700 MB   |    Зарегистрирован:  3 года 6 месяцев   |    .torrent скачан:  40 раз   |   
Раздают:  1  
   
загрузка...
 
Автор Сообщение

Galfimbul

avatar Galfimbul


Пока ты спал / While you were sleeping

Год выпуска: 1995

Страна: США
Жанр: мелодрама, комедия
Продолжительность: 01:43:15
Перевод: Профессиональный (многоголосый закадровый) ОРТ
Перевод 2: Профессиональный (дублированный) Нева-1
Cубтитры: только русские
Оригинальная аудиодорожка: английский

Режиссер: Джон Тёртелтауб / Jon Turteltaub
В ролях: Сандра Баллок, Билл Пуллман, Питер Галлахер, Питер Бойл, Джек Уорден, Глинис Джонс, Миколь Мёркюрио, Джейсон Бернард, Майкл Рисполи, Элли Уокер
Описание: Застенчивость мешает одинокой Люси познакомиться с мужчиной своей мечты, которого она видит каждое утро. Зато помогает случай, и девушка спасает незнакомцу жизнь. Теперь она может любоваться им целыми днями: спасенный Питер лежит в больнице без сознания.
Семья по ошибке принимает ее за невесту, и Люси не хочет разубеждать этих милых людей. Ведь она уже успела привязаться к ним, особенно к брату Питера...
Доп. информация: КиноПоиск: 7.498 (20 969) iMDb: 6.6 (61 123)

сэмпл

Исходник (ссылка): [url]...3874880[/url]
Качество: WEB-DLRip
Формат: MP4
Видео: AVC, 640x348 (1.85:1), 649 kbps, 23.976 fps
Аудио: русский [MVO] AAC, 2 ch, 48.0 kHz, 96 kbps
Аудио №2: русский [DUB] AAC, 2 ch, 48.0 kHz, 96 kbps
Аудио №3: английский [original] AAC, 2 ch, 48.0 kHz, 96 kbps
ОбщееПолное имя : while.you.were.sleeping.mp4Формат : MPEG-4Профиль формата : Base MediaИдентификатор кодека : isomРазмер файла : 700 МбайтПродолжительность : 1 ч. 43 м.Режим общего битрейта : ПеременныйОбщий поток : 947 Кбит/секПрограмма кодирования : Lavf56.16.101

ВидеоИдентификатор : 1Формат : AVCФормат/Информация : Advanced Video CodecПрофиль формата : [email protected]Параметр CABAC формата : ДаПараметр ReFrames формата : 2 кадраИдентификатор кодека : avc1Идентификатор кодека/Информация : Advanced Video CodingПродолжительность : 1 ч. 43 м.Битрейт : 649 Кбит/секШирина : 640 пикселейВысота : 348 пикселейСоотношение сторон : 1,85:1Соотношение сторон в оригинале : 1,85:1Режим частоты кадров : ПостоянныйЧастота кадров : 23,976 кадра/секЦветовое пространство : YUVСубдискретизация насыщенности : 4:2:0Битовая глубина : 8 битТип развёртки : ПрогрессивнаяБит/(Пиксели*Кадры) : 0.122Размер потока : 479 Мбайт (68%)Библиотека кодирования : x264 core 142 r2491Настройки программы : cabac=1 / ref=2 / deblock=1:0:0 / analyse=0x1:0x131 / me=hex / subme=7 / psy=1 / psy_rd=1.00:0.00 / mixed_ref=0 / me_range=16 / chroma_me=1 / trellis=1 / 8x8dct=0 / cqm=0 / deadzone=21,11 / fast_pskip=1 / chroma_qp_offset=-2 / threads=6 / lookahead_threads=1 / sliced_threads=0 / nr=0 / decimate=1 / interlaced=0 / bluray_compat=0 / constrained_intra=0 / bframes=3 / b_pyramid=0 / b_adapt=1 / b_bias=0 / direct=3 / weightb=1 / open_gop=0 / weightp=2 / keyint=230 / keyint_min=23 / scenecut=40 / intra_refresh=0 / rc_lookahead=40 / rc=abr / mbtree=1 / bitrate=649 / ratetol=1.0 / qcomp=0.60 / qpmin=10 / qpmax=69 / qpstep=4 / vbv_maxrate=24000 / vbv_bufsize=24000 / nal_hrd=none / filler=0 / ip_ratio=1.40 / aq=1:1.00

Аудио #1Идентификатор : 2Формат : AACФормат/Информация : Advanced Audio CodecПрофиль формата : LCИдентификатор кодека : 40Продолжительность : 1 ч. 43 м.Вид битрейта : ПостоянныйБитрейт : 96,0 Кбит/секКаналы : 2 каналаРасположение каналов : Front: L RЧастота : 48,0 КГцМетод сжатия : С потерямиРазмер потока : 70,9 Мбайт (10%)

Аудио #2Идентификатор : 3Формат : AACФормат/Информация : Advanced Audio CodecПрофиль формата : LCИдентификатор кодека : 40Продолжительность : 1 ч. 43 м.Вид битрейта : ПостоянныйБитрейт : 96,0 Кбит/секКаналы : 2 каналаРасположение каналов : Front: L RЧастота : 48,0 КГцМетод сжатия : С потерямиРазмер потока : 70,9 Мбайт (10%)

Аудио #3Идентификатор : 4Формат : AACФормат/Информация : Advanced Audio CodecПрофиль формата : LCИдентификатор кодека : 40Продолжительность : 1 ч. 43 м.Вид битрейта : ПостоянныйБитрейт : 96,0 Кбит/секКаналы : 2 каналаРасположение каналов : Front: L RЧастота : 48,0 КГцМетод сжатия : С потерямиРазмер потока : 70,9 Мбайт (10%)

ТекстИдентификатор : 5Формат : Timed TextРежим смешивания : sbtlИдентификатор кодека : tx3gПродолжительность : 1 ч. 40 м.Вид битрейта : ПеременныйБитрейт : 95 бит/секРазмер потока : 69,8 Кбайт (0%)Язык : Russian


Трекер:  [ 26-Дек-2014 18:00 ]

  

Скачать .torrent

Размер .torrent файла 28 KB


Размер: 700 MB
Хэш (hash) релиза: 8c11a70baddbe51b52d1e450d22063d043601d30

Еще никто не оставлял запись к записи скачать торрент [VIDEO] Пока ты спал While you were sleeping . Будь первым!

!Обратная связь